<?xml version="1.0" standalone="no"?>
<!DOCTYPE svg PUBLIC "-//W3C//DTD SVG 1.1//EN" "http://www.w3.org/Graphics/SVG/1.1/DTD/svg11.dtd" >
<svg xmlns="http://www.w3.org/2000/svg" xmlns:xlink="http://www.w3.org/1999/xlink" version="1.1">
<metadata>
Created by FontForge 20201107 at Sat Jul 31 04:32:51 2021
 By Unknown
</metadata>
<defs>
<font id="jkiticon" horiz-adv-x="1024" >
  <font-face 
    font-family="jkiticon"
    font-weight="400"
    font-stretch="normal"
    units-per-em="1024"
    panose-1="2 0 5 3 0 0 0 0 0 0"
    ascent="960"
    descent="-64"
    bbox="-0.564103 -77.2727 1024.27 947.824"
    underline-thickness="0"
    underline-position="0"
    unicode-range="U+F960-FA8B"
  />
<missing-glyph 
 />
    <glyph glyph-name=".notdef" 
 />
    <glyph glyph-name="uniE960" unicode="&#xf960;" 
d="M810 -24q0 -4 -3 -7t-7 -3h-660q-4 -1 -7.5 2t-3.5 7v904q0 6 -1 12t-3 11h657q11 0 19.5 -8.5t8.5 -19.5v-376h43v375q0 30 -21 51t-50 21h-701q-12 3 -25 1.5t-24 -9.5q-15 -10 -23 -26.5t-8 -34.5v-155q-1 -21 14 -36.5t36 -16.5h35v-692q0 -22 15.5 -37.5t37.5 -15.5
h660q22 0 37.5 15t16.5 37v182h-43v-181zM86 711h-35q-3 0 -5 2.5t-2 7.5v155q0 8 3 15t9 11q2 2 4.5 2.5t4.5 0.5v-3h9q6 -4 9.5 -10t2.5 -13v-168zM1017 447l-67 67q-6 6 -14.5 6t-15.5 -6l-330 -331q-1 -1 -2.5 -3t-1.5 -3l-55 -121q-4 -8 -1 -16.5t11 -12.5q4 -1 8.5 -1
t9.5 1l121 56q1 0 3 1.5t3 2.5l331 330q6 7 6 15.5t-6 14.5zM593 90l19 42l22 -23zM671 132l-36 36l223 223l37 -36zM924 385l-35 36l47 47l36 -35zM278 796h383v-43h-383v43zM278 647h383v-43h-383v43zM278 498h383v-43h-383v43zM278 349h170v-43h-170v43zM512 349h43v-43
h-43v43zM618 349h43v-43h-43v43z" />
    <glyph glyph-name="uniE961" unicode="&#xf961;" 
d="M1004 570h-14q-5 26 -19 59t-31 66.5t-34 62.5q-17 30 -28 49q11 8 17.5 19.5t6.5 25.5q0 22 -16 38t-38 16q-23 0 -39 -16t-16 -38q0 -14 6.5 -25.5t17.5 -19.5q-11 -19 -28 -49q-17 -29 -34 -62.5t-31 -66.5t-19 -59h-14q-8 0 -14 -6t-6 -14q0 -73 52 -125t125 -52
t124.5 52t51.5 125q0 8 -6 14t-14 6zM848 865q5 0 9 -4t4 -9q0 -6 -4 -9.5t-9 -3.5q-6 0 -10 3.5t-4 9.5q0 5 4 9t10 4zM847 779q26 -44 59 -106.5t42 -102.5h-201q9 38 39.5 98t60.5 111zM848 414q-51 0 -89 33.5t-46 81.5h269q-8 -48 -46 -81.5t-88 -33.5zM694 82h-54v52
q0 8 -6 14t-15 6h-52v570q10 10 16.5 23t6.5 28l87 19q8 1 12.5 8.5t2.5 15.5t-9 12.5t-15 2.5l-86 -18q-10 18 -28.5 29.5t-40.5 11.5q-31 0 -53 -21t-24 -52l-216 -46q-7 10 -18.5 16t-25.5 6q-22 0 -38 -15.5t-16 -38.5q0 -14 6.5 -25.5t17.5 -18.5q-11 -19 -28 -49
t-34 -63.5t-31 -66.5t-19 -58h-14q-8 0 -14 -6t-6 -15q0 -73 51.5 -124.5t124.5 -51.5t125 51.5t52 124.5q0 9 -6 15t-14 6h-14q-5 25 -19 58t-31 66.5t-34 63.5t-28 49q9 6 15 15.5t8 20.5l214 47q3 -6 6.5 -11t8.5 -9v-570h-52q-9 0 -15 -6t-6 -14v-52h-53q-9 0 -15 -6
t-6 -15v-76q0 -8 6 -14t15 -6h361q8 0 14 6t6 14v76q0 9 -6 15t-14 6zM176 718q6 0 10 -3.5t4 -9.5q0 -5 -4 -9t-10 -4q-5 0 -9 4t-4 9q0 6 4 9.5t9 3.5zM176 268q-50 0 -88 33t-46 82h269q-8 -49 -46 -82t-89 -33zM277 424h-201q9 37 39.5 97t60.5 111q26 -43 59 -105.5
t42 -102.5zM513 815q15 0 26 -10.5t11 -25.5t-11 -26t-26 -11t-26 11t-11 26t11 25.5t26 10.5zM527 703v-549h-28v549q4 -1 7.5 -1.5t6.5 -0.5q4 0 7 0.5t7 1.5zM427 113h172v-31h-172v31zM673 5h-320v36h320v-36zM771 833q-2 9 -9 13.5t-15 2.5l-15 -3q-9 -2 -13.5 -9
t-2.5 -15t7.5 -12t12.5 -4h4l15 3q8 2 13 9t3 15z" />
    <glyph glyph-name="uniE962" unicode="&#xf962;" 
d="M0 596v-451q0 -52 36.5 -88.5t88.5 -36.5h774q52 0 88.5 36.5t36.5 88.5v451q0 50 -35 84.5t-84 34.5h-166l-4 18q-12 52 -53.5 85t-95.5 33h-148q-54 0 -95.5 -33t-53.5 -85l-4 -18h-166q-49 0 -84 -35t-35 -84zM306 664q8 0 15 5.5t9 14.5l9 37q8 35 35.5 57t63.5 22
h148q36 0 63.5 -22t35.5 -57l8 -37q2 -9 9 -14.5t16 -5.5h187q28 0 48 -20t20 -48v-451q0 -31 -22 -52.5t-52 -21.5h-774q-31 0 -52.5 21.5t-21.5 52.5v451q0 28 20 48t48 20h187zM208 555q0 -14 -10.5 -24t-24.5 -10t-24 10t-10 24t10 24t24 10t24.5 -10t10.5 -24zM512 151
q44 0 84 17q39 17 68 46t46 69q17 39 17 83q0 45 -17 84t-46 68t-68 46q-40 17 -84 17t-84 -17q-39 -17 -68 -46t-46 -68t-17 -84q0 -44 17 -84q17 -39 46 -68t68 -46q40 -17 84 -17zM512 530q68 0 116 -48t48 -116t-48 -116t-116 -48t-116 48t-48 116t48 116t116 48z" />
    <glyph glyph-name="uniE963" unicode="&#xf963;" 
d="M832 780l-10 76q-1 3 -2.5 5.5t-3.5 4.5t-5 2.5t-6 0.5l-85 -13q-6 -1 -9.5 -6t-2.5 -11t6 -9.5t11 -2.5l49 8q-49 -62 -102 -113.5t-109 -93.5q-48 -36 -98.5 -64.5t-101.5 -48.5q-87 -35 -141 -39t-55 -4q-6 0 -10.5 -4t-4.5 -10t4 -10.5t10 -4.5h6q16 0 69 6.5
t131 37.5q53 21 105 50t102 67q58 43 113 96.5t106 116.5l5 -41q1 -6 5.5 -9.5t9.5 -3.5h2q6 1 9.5 6t2.5 11zM997 82h-118q7 5 14 10.5t13 11.5q25 25 38.5 57t13.5 67q0 36 -13.5 68t-38.5 57q-8 9 -18 16t-21 13v59q0 6 -4 10.5t-10 4.5t-10.5 -4.5t-4.5 -10.5v-46
q-30 10 -61.5 9.5t-60.5 -12.5v179q0 1 1 2t2 1h116q1 0 2 -1t1 -2v-36q0 -6 4.5 -10.5t10.5 -4.5t10 4.5t4 10.5v36q0 13 -9.5 23t-22.5 10h-116q-13 0 -22.5 -10t-9.5 -23v-195q-8 -5 -15.5 -10.5t-13.5 -12.5q-25 -25 -38.5 -57t-13.5 -67q0 -36 13.5 -68t38.5 -57
q6 -6 13 -11.5t14 -10.5h-92v356q0 14 -9.5 23.5t-23.5 9.5h-115q-14 0 -23.5 -9.5t-9.5 -23.5v-356h-94v236q0 14 -9.5 23.5t-23.5 9.5h-115q-14 0 -23.5 -9.5t-9.5 -23.5v-236h-60v750q0 12 -8 19.5t-19 7.5h-23q-11 0 -19 -7.5t-8 -19.5v-103q0 -6 4.5 -10.5t10.5 -4.5
t10 4.5t4 10.5v101h19v-751q0 -11 8 -18.5t19 -7.5h920v-22h-966v606q0 6 -4 10t-10 4t-10.5 -4t-4.5 -10v-609q0 -11 8 -19t19 -8h970q11 0 19 8t8 19v27q0 11 -8 19t-19 8zM289 82h-123v236q0 2 1 3t3 1h115q2 0 3 -1t1 -3v-236zM441 82v356q0 2 1 3t3 1h115q1 0 2 -1
t1 -3v-356h-122zM846 97q-11 -6 -22.5 -9.5t-25.5 -4.5l-1 -1h-30l-2 1h-5l-2 1q-13 2 -25.5 6.5t-24.5 10.5q-8 5 -15.5 11t-14.5 13q-21 20 -32 47t-11 56q0 30 11 56.5t32 47.5q8 8 17 14.5t18 11.5q1 0 1 1q16 8 33.5 12t34.5 4q14 0 28 -2.5t27 -8.5h3l4 -2l1 -1
q11 -5 21.5 -12.5t19.5 -16.5q43 -43 43 -103.5t-43 -103.5q-9 -9 -18.5 -16t-21.5 -12zM789 243v52q13 -1 19.5 -5.5t10.5 -4.5q6 0 9 5.5t3 9.5q0 9 -14.5 13.5t-27.5 4.5v7q0 2 -2.5 4t-5.5 2t-5 -2t-2 -4v-7q-19 -2 -34 -13t-15 -35q0 -25 15.5 -34.5t33.5 -15.5v-60
q-20 1 -28 10.5t-14 9.5q-5 0 -8.5 -5t-3.5 -10q0 -9 15 -19.5t39 -10.5v-8q0 -2 2 -4t5 -2t5.5 2t2.5 4v9q20 2 33 15.5t13 36.5q0 26 -15 37t-31 18zM775 247q-10 4 -17 9.5t-7 16.5q0 10 6.5 15t17.5 6v-47zM787 160v54q10 -4 16.5 -10t6.5 -18q0 -11 -6 -17.5t-17 -8.5z
" />
    <glyph glyph-name="uniE964" unicode="&#xf964;" 
d="M1011 628l-338 218q-5 3 -11 2t-9 -7q-4 -5 -2.5 -10.5t6.5 -9.5l334 -214h-78l-380 244q-10 6 -21.5 6t-20.5 -6l-380 -244h-78l479 308l68 -44q5 -3 11 -1.5t9 6.5t2 11t-6 9l-68 43q-7 5 -15.5 5t-16.5 -5l-483 -311q-8 -5 -11 -13.5t-1 -17.5q3 -9 10 -14t16 -5h74
v-95q0 -8 5.5 -14.5t13.5 -8.5v-26q0 -10 7 -17t17 -7h2v-178q0 -6 4.5 -10.5t10.5 -4.5t10 4.5t4 10.5v193q0 6 -4 10t-10 4h-12v20h103v-20h-12q-6 0 -10 -4t-4 -10v-322q0 -6 4 -10t10 -4h12v-22h-103v22h12q6 0 10 4.5t4 10.5v37q0 6 -4 10t-10 4t-10.5 -4t-4.5 -10v-23
h-2q-10 0 -17 -7t-7 -17v-25q-8 -2 -13.5 -8.5t-5.5 -15.5v-29h-52q-12 0 -20.5 -8.5t-8.5 -21.5v-30q0 -12 8.5 -20.5t20.5 -8.5h926q12 0 20.5 8.5t8.5 20.5v30q0 12 -8.5 21t-20.5 9h-52v29q0 9 -5.5 15.5t-13.5 8.5v25q0 10 -7 17t-17 7h-2v292h2q10 0 17 7.5t7 16.5v26
q8 2 13.5 8.5t5.5 15.5v94h74q9 0 16 5.5t10 13.5q2 9 -1 17.5t-11 13.5zM506 827q3 1 6 1t5 -1l342 -220h-694zM130 578h764v-36h-764v36zM593 68v26q0 10 -7 17t-17 7h-2v292h2q9 0 16.5 7t7.5 17v26q8 2 13.5 8.5t5.5 15.5v29h112v-29q0 -9 5.5 -15.5t13.5 -8.5v-26
q0 -10 7 -17t17 -7h2v-292h-2q-10 0 -17 -7t-7 -17v-26q-8 -1 -13.5 -8t-5.5 -15v-30h-112v30q0 8 -5.5 15t-13.5 8zM281 68v26q0 10 -7 17t-17 7h-2v292h2q10 0 17 7t7 17v26q8 2 13.5 8.5t5.5 15.5v29h112v-29q0 -9 5.5 -15.5t13.5 -8.5v-26q0 -10 7 -17t17 -7h2v-292h-2
q-9 0 -16.5 -7t-7.5 -17v-26q-8 -1 -13.5 -8t-5.5 -15v-30h-112v30q0 8 -5.5 15t-13.5 8zM552 89h12v-22h-103v22h11q6 0 10.5 4.5t4.5 10.5v321q0 6 -4.5 10.5t-10.5 4.5h-11v20h103v-20h-12q-6 0 -10.5 -4.5t-4.5 -10.5v-321q0 -7 4.5 -11t10.5 -4zM441 489v24h142v-24
h-142zM441 39q1 -1 3 -1h136l3 1v-24h-142v24zM130 489v24h141v-24h-141zM130 39q1 -1 2 -1h137l2 1v-24h-141v24zM975 -14v-30h-926v30h926zM892 38l2 1v-24h-141v24q1 -1 2 -1h137zM784 439h-12v20h103v-20h-12q-6 0 -10 -4t-4 -10v-322q0 -6 4 -10t10 -4h12v-22h-103v22
h12q6 0 10 4.5t4 10.5v321q0 6 -4 10t-10 4zM894 489h-141v24h141v-24z" />
    <glyph glyph-name="uniE965" unicode="&#xf965;" 
d="M899 947h-774q-25 0 -42.5 -17.5t-17.5 -42.5v-903q0 -25 17.5 -43t42.5 -18h774q25 0 42.5 18t17.5 43v903q0 25 -17.5 42.5t-42.5 17.5zM113 887q0 5 3.5 8.5t8.5 3.5h774q5 0 8.5 -3.5t3.5 -8.5v-211h-798v211zM347 -28h-222q-5 0 -8.5 3.5t-3.5 8.5v292h234v-304z
M347 324h-234v304h234v-304zM629 -28h-234v304h234v-304zM629 324h-234v304h234v-304zM911 -16q0 -5 -3.5 -8.5t-8.5 -3.5h-222v656h234v-644zM290 500h-36v36q0 10 -7 17t-17 7t-17 -7t-7 -17v-36h-36q-10 0 -17 -7t-7 -17t7 -17t17 -7h36v-36q0 -10 7 -17t17 -7t17 7t7 17
v36h36q10 0 17 7t7 17t-7 17t-17 7zM573 500h-122q-10 0 -17 -7t-7 -17t7 -17t17 -7h122q10 0 17 7t7 17t-7 17t-17 7zM264 124l29 29q7 7 7 17t-7 17t-17 7t-17 -7l-29 -29l-29 29q-7 7 -17.5 7t-17.5 -7t-7 -17t7 -17l30 -29l-30 -29q-7 -7 -7 -17.5t7 -17.5q4 -3 8.5 -5
t9.5 -2q4 0 8.5 2t8.5 5l29 29l29 -29q4 -4 8.5 -5.5t8.5 -1.5q5 0 9.5 1.5t7.5 5.5q7 7 7 17t-7 17zM576 187q-7 7 -17.5 7t-17.5 -7l-92 -93q-7 -7 -7 -17t7 -17q3 -3 7.5 -5t9.5 -2q4 0 8.5 2t8.5 5l93 93q7 7 7 17t-7 17zM486 170q0 -9 -6 -15t-14 -6q-9 0 -15 6t-6 15
t6 15t15 6q8 0 14 -6t6 -15zM579 77q0 -8 -6 -14t-15 -6q-8 0 -14 6t-6 14q0 9 6 15t14 6q9 0 15 -6t6 -15zM855 366h-124q-10 0 -17 -7t-7 -17t7 -17t17 -7h124q10 0 17.5 7t7.5 17t-7.5 17t-17.5 7zM855 282h-124q-10 0 -17 -7t-7 -17t7 -17.5t17 -7.5h124q10 0 17.5 7
t7.5 17t-7.5 17.5t-17.5 7.5z" />
    <glyph glyph-name="uniE966" unicode="&#xf966;" 
d="M49 427q-1 0 -2.5 -1.5t-1.5 -2.5l-10 -92l10 -90q0 -2 1.5 -3t2.5 -1q2 0 3 1t2 3l11 90l-11 92q-1 1 -2 2.5t-3 1.5zM12 392q-2 0 -3 -1.5t-2 -2.5l-7 -57l7 -56q1 -2 2 -3t3 -1q1 0 2 1t2 3l9 56l-9 57q-1 1 -2 2.5t-2 1.5zM90 445q-2 0 -3.5 -1.5t-1.5 -3.5l-10 -109
l10 -105q0 -3 1.5 -4t3.5 -1t3.5 1t1.5 4l11 105l-11 109q0 2 -1.5 3.5t-3.5 1.5zM130 449q-2 0 -4 -2t-2 -4l-9 -112l9 -109q0 -2 2 -4t4 -2q3 0 4.5 2t1.5 4l11 109l-11 112q0 2 -1.5 4t-4.5 2zM178 435q0 3 -2 4.5t-5 1.5t-5 -1.5t-2 -4.5l-8 -104l8 -110q0 -3 2 -4.5
t5 -1.5t5 1.5t2 4.5l10 110zM212 507q-3 0 -5 -2t-2 -5l-8 -169l8 -110q0 -3 2 -5t5 -2t5.5 2t2.5 5l9 110l-9 169q0 3 -2.5 5t-5.5 2zM253 546q-3 0 -5.5 -2t-2.5 -6l-2 -33q-1 -32 -2.5 -71t-2.5 -71l-1 -33l8 -109q0 -3 2.5 -5.5t5.5 -2.5q4 0 6.5 2.5t2.5 5.5l8 109
l-8 208q0 4 -2.5 6t-6.5 2zM296 565q-4 0 -7 -2.5t-3 -6.5l-1 -35q-1 -36 -2.5 -78t-2.5 -77l-1 -35l7 -108q0 -4 3 -6.5t7 -2.5t6.5 2.5t2.5 6.5l8 108l-8 225q0 4 -2.5 6.5t-6.5 2.5zM348 563q0 5 -3 8t-7 3t-7 -3t-3 -8l-7 -232l7 -107q0 -5 3 -8t7 -3t7 3t3 8l8 107z
M381 569q-5 0 -8.5 -3.5t-3.5 -8.5l-6 -226l6 -106q0 -5 3.5 -8t8.5 -3q4 0 7.5 3t3.5 8l6 106l-6 226q0 5 -3.5 8.5t-7.5 3.5zM423 561q-5 0 -8.5 -3.5t-3.5 -8.5l-5 -218l5 -106q0 -5 3.5 -8.5t8.5 -3.5t8.5 3.5t3.5 8.5l7 105l-7 219q0 5 -3.5 8.5t-8.5 3.5zM474 601
q-2 1 -3.5 2t-3.5 1t-4 -1t-3 -2q-3 -1 -4.5 -4t-1.5 -6v-3l-5 -257q0 -1 3 -53l2 -52q0 -3 0.5 -5t2.5 -3q1 -2 4 -3.5t6 -1.5q2 0 4.5 1t4.5 3q1 2 2.5 4t1.5 5v10l5 95l-5 260q0 3 -2 6t-4 4zM517 626q-2 1 -3.5 1.5t-3.5 0.5q-3 0 -5 -1l-4 -2q-2 -2 -3.5 -5t-1.5 -7
l-6 -283l3 -52l3 -51q0 -5 4 -9t10 -4q5 0 9 4t4 9l7 103l-7 284q0 4 -1.5 7t-4.5 5zM898 465q-13 0 -25 -2.5t-24 -7.5q-3 43 -22 80t-48.5 64t-68.5 43q-38 16 -82 16q-21 0 -41.5 -4t-39.5 -12q-7 -2 -9.5 -5.5t-2.5 -8.5v-400q0 -6 4 -10t10 -4q0 -1 55 -1h120l120 1h54
q52 0 89 36.5t37 88.5t-37 89t-89 37z" />
    <glyph glyph-name="uniE967" unicode="&#xf967;" 
d="M1003 -34h-982q-8 0 -14.5 -6.5t-6.5 -15.5q0 -8 6.5 -14.5t14.5 -6.5h982q9 0 15 6.5t6 14.5q0 9 -6.5 15.5t-14.5 6.5zM192 222h-128q-9 0 -15 -6.5t-6 -15.5v-256q0 -8 6 -14.5t15 -6.5h128q9 0 15 6.5t6 14.5v256q0 9 -6 15.5t-15 6.5zM171 -34h-86v213h86v-213z
M448 435h-128q-9 0 -15 -6t-6 -15v-470q0 -8 6 -14.5t15 -6.5h128q9 0 15 6.5t6 14.5v470q0 9 -6 15t-15 6zM427 -34h-86v427h86v-427zM704 350h-128q-9 0 -15 -6.5t-6 -15.5v-384q0 -8 6 -14.5t15 -6.5h128q9 0 15 6.5t6 14.5v384q0 9 -6 15.5t-15 6.5zM683 -34h-86v341h86
v-341zM960 606h-128q-9 0 -15 -6.5t-6 -15.5v-640q0 -8 6 -14.5t15 -6.5h128q9 0 15 6.5t6 14.5v640q0 9 -6 15.5t-15 6.5zM939 -34h-86v597h86v-597zM128 563q-35 0 -60 -25t-25 -60q0 -36 25 -61t60 -25t60 25t25 61q0 35 -25 60t-60 25zM128 435q-18 0 -30.5 12.5
t-12.5 30.5t12.5 30t30.5 12t30.5 -12.5t12.5 -29.5q0 -18 -12.5 -30.5t-30.5 -12.5zM384 777q-35 0 -60 -25t-25 -61q0 -35 25 -60t60 -25t60 25t25 60t-25 60.5t-60 25.5zM384 649q-18 0 -30.5 12.5t-12.5 29.5q0 18 12.5 30.5t30.5 12.5t30.5 -12.5t12.5 -30.5
q0 -17 -12.5 -29.5t-30.5 -12.5zM640 691q-35 0 -60 -25t-25 -60q0 -36 25 -61t60 -25t60 25t25 61q0 35 -25 60t-60 25zM640 563q-18 0 -30.5 12.5t-12.5 30.5q0 17 12.5 29.5t30.5 12.5t30.5 -12.5t12.5 -29.5q0 -18 -12.5 -30.5t-30.5 -12.5zM896 947q-35 0 -60 -25
t-25 -60q0 -36 25 -61t60 -25t60 25t25 61q0 35 -25 60t-60 25zM896 819q-18 0 -30.5 12.5t-12.5 30.5q0 17 12.5 29.5t30.5 12.5t30.5 -12.5t12.5 -29.5q0 -18 -12.5 -30.5t-30.5 -12.5zM866 832q-6 6 -15 6t-15 -6l-166 -166q-6 -6 -6 -15t6 -15q3 -3 7 -4.5t8 -1.5t8 1.5
t7 4.5l166 166q6 6 6 15t-6 15zM588 655l-137 39q-8 3 -16 -1.5t-10 -12.5q-2 -9 2 -16.5t13 -10.5l137 -39q1 0 2.5 -0.5t2.5 -0.5q7 0 13 4.5t8 11.5q3 8 -1.5 16t-13.5 10zM351 665q-6 6 -14.5 7.5t-15.5 -4.5l-161 -128q-7 -6 -8 -14.5t5 -15.5q3 -4 7.5 -6t8.5 -2
t7.5 1t5.5 3l161 129q7 5 8 14t-4 16z" />
    <glyph glyph-name="uniE968" unicode="&#xf968;" 
d="M736 658l-350 -388l-111 122q-8 10 -21.5 10.5t-23.5 -8.5q-9 -9 -10 -22.5t9 -22.5l128 -143q5 -6 11.5 -9t13.5 -3h5q7 0 14 3t12 8l371 409q8 10 8 23.5t-10 21.5q-10 10 -23 9t-23 -10zM512 947q-106 0 -199 -40q-93 -41 -162.5 -110.5t-110.5 -162.5
q-40 -93 -40 -199q0 -105 40 -199q41 -93 110.5 -162.5t162.5 -109.5q93 -41 199 -41t199 41q93 40 162.5 109.5t110.5 162.5q40 94 40 199q0 106 -40 199q-41 93 -110.5 162.5t-162.5 110.5q-93 40 -199 40zM512 -13q-92 0 -174 36q-81 35 -142 96t-97 142q-35 82 -35 174
q0 93 35 174q36 82 96.5 142.5t142.5 96.5q82 35 174 35t174 -35q81 -35 142 -96t97 -143q35 -81 35 -174q0 -92 -35 -174q-36 -81 -96.5 -142t-142.5 -96q-82 -36 -174 -36z" />
    <glyph glyph-name="uniE969" unicode="&#xf969;" 
d="M874 797q-36 36 -78 64t-88 47.5t-95 28.5q-50 10 -101 10t-101 -10q-49 -9 -95 -28.5t-88 -47.5q-42 -27 -78 -64q-36 -36 -64 -78t-47 -88t-29 -95t-10 -101q0 -51 10 -100q10 -50 29 -96t47 -88t64 -78t78 -64t88 -47t95 -29q50 -10 101 -10t101 10q49 10 95 29t88 47
t78 64q36 37 64 78q28 42 47 88t29 96q10 49 10 100t-10 101q-10 49 -29 95t-47 88t-64 78zM512 -36q-97 0 -183 37t-150 101t-101 150t-37 183q0 98 37 183q37 86 101 150t150 101t183 37t183 -37t150 -101t101 -150q37 -85 37 -183q0 -97 -37 -183t-101 -150t-150 -101
t-183 -37zM512 867q-89 0 -168 -34q-78 -34 -137 -92.5t-93 -137.5t-34 -168t34 -168q34 -78 93 -136.5t137 -92.5q79 -34 168 -34t168 34q78 34 137 92.5t93 136.5q34 79 34 168t-34 168t-93 137.5t-137 92.5q-79 34 -168 34zM860 258l-59 34q-7 4 -15 2t-12 -10
q-5 -7 -2.5 -15t9.5 -12l59 -34q-23 -35 -52 -64t-63 -51l-34 58q-4 8 -12.5 10t-15.5 -2t-9.5 -12.5t2.5 -15.5l34 -59q-36 -18 -75.5 -29t-81.5 -13v68q0 8 -6 14t-15 6q-8 0 -14 -6t-6 -14v-68q-42 2 -81.5 13t-75.5 29l34 59q4 7 2 15.5t-10 12.5q-7 4 -15 2t-12 -10
l-34 -58q-35 22 -64 51t-51 64l58 34q8 4 10 12t-2 15q-4 8 -12.5 10t-15.5 -2l-59 -34q-18 35 -29 75t-13 82h68q8 0 14 6t6 14q0 9 -6 15t-14 6h-68q2 42 13 81.5t29 75.5l59 -34q2 -2 5 -2.5t5 -0.5q5 0 10 2.5t8 7.5q4 7 2 15.5t-10 12.5l-58 34q22 34 51 63t64 52
l34 -59q2 -5 7 -7.5t10 -2.5q3 0 5.5 0.5t4.5 2.5q8 4 10 12t-2 15l-34 59q36 18 75.5 29t81.5 13v-68q0 -8 6 -14t14 -6q9 0 15 6t6 14v68q42 -2 81.5 -13t75.5 -29l-34 -59q-5 -7 -2.5 -15t9.5 -12q2 -2 5 -2.5t5 -0.5q5 0 10 2.5t8 7.5l34 59q34 -23 63 -52t52 -63
l-59 -34q-7 -4 -9.5 -12.5t2.5 -15.5q2 -5 7 -7.5t10 -2.5q3 0 5.5 0.5t4.5 2.5l59 34q19 -36 29.5 -75.5t12.5 -81.5h-68q-8 0 -14 -6t-6 -15q0 -8 6 -14t14 -6h68q-2 -42 -13 -81.5t-29 -75.5zM532 492v131q0 8 -6 14t-14 6t-14 -6t-6 -14v-131q-18 -6 -29 -21.5
t-11 -35.5q0 -11 3.5 -21t10.5 -18l-32 -56q-5 -7 -2.5 -15t9.5 -13q2 -1 5 -1.5t5 -0.5q5 0 10 2.5t8 7.5l32 56q3 -1 5 -1h6q25 0 42.5 17.5t17.5 42.5q0 20 -11 35.5t-29 21.5zM512 416q-8 0 -14 5.5t-6 13.5t6 14t14 6t14 -6t6 -14t-6 -13.5t-14 -5.5zM512 711
q-8 0 -14 -6t-6 -15v-8q0 -8 6 -14t14 -6t14 6t6 14v8q0 9 -6 15t-14 6z" />
    <glyph glyph-name="uniE96A" unicode="&#xf96a;" 
d="M886 929h-748q-57 0 -97.5 -40.5t-40.5 -97.5v-504q0 -57 40.5 -97.5t97.5 -40.5h16l-1 -208l301 208h432q57 0 97.5 40.5t40.5 97.5v504q0 57 -40.5 97.5t-97.5 40.5zM984 287q0 -41 -28.5 -70t-69.5 -29h-444l-249 -172l1 172h-56q-41 0 -69.5 29t-28.5 70v504
q0 41 28.5 70t69.5 29h748q41 0 69.5 -29t28.5 -70v-504zM209 725h606v-39h-606v39zM209 558h606v-39h-606v39zM209 391h449v-39h-449v39z" />
    <glyph glyph-name="uniE96B" unicode="&#xf96b;" 
d="M604 292q47 19 83.5 45.5t63.5 60.5t40.5 70.5t13.5 76.5t-13.5 76.5t-40.5 70.5t-63.5 60.5t-83.5 45.5q-46 20 -96.5 30t-105.5 10q-54 0 -104.5 -10t-97.5 -30q-46 -19 -82.5 -45.5t-63.5 -60.5t-40.5 -70.5t-13.5 -76.5q0 -34 10 -66t31 -62q20 -30 48 -55.5
t63 -45.5q-3 -7 -6 -13.5t-6 -11.5q-3 -6 -6.5 -11.5t-7.5 -10.5q-4 -6 -7.5 -10t-5.5 -7t-6 -7t-9 -10q-5 -5 -8 -8.5t-5 -5.5l-1 -1l-1 -2l-5 -5q-1 -2 -2 -3l-1 -3q-1 -1 -1 -2t-1 -2v-5l1 -2q0 -4 2 -7t4 -5q3 -2 6 -3.5t6 -1.5h2q14 2 26 5l23 4q44 12 83.5 30t75.5 44
q25 -5 50.5 -7.5t49.5 -2.5q55 0 105.5 10t96.5 30zM285 339l-26 -17q-8 -6 -16.5 -11.5t-18.5 -11.5l20 48l-55 32q-28 16 -49 35t-37 41q-15 21 -22.5 44t-7.5 46q0 29 11.5 56.5t33.5 52.5q22 26 52.5 46t68.5 35t79 22t84 7q44 0 85 -7t79 -22t68 -35t53 -46
q22 -25 33 -52.5t11 -56.5t-11 -56.5t-33 -52.5q-23 -26 -53 -46t-68 -35t-79 -22t-85 -7q-21 0 -43 2t-44 6zM983 270q21 30 31 62t10 67t-10.5 68t-32.5 63q-21 31 -50.5 56.5t-65.5 45.5q6 -22 9.5 -43.5t3.5 -43.5q0 -38 -9.5 -74.5t-29.5 -70.5q-19 -34 -46.5 -64.5
t-62.5 -56.5q-33 -24 -71 -42.5t-80 -31.5t-86.5 -19.5t-90.5 -6.5q-8 0 -20.5 0.5t-29.5 2.5q57 -38 124.5 -57t145.5 -19q24 0 49.5 2.5t50.5 6.5q36 -25 75.5 -43t83.5 -30l23 -4l26 -5q4 0 7 1t6 3t4.5 5.5t2.5 7.5v2l1 1v4q-1 2 -2 3l-1 4l-2 2l-2 3l-2 1l-2 4l-1 1
q-2 1 -5 4.5t-8 9.5q-5 5 -9 9.5t-6 7.5t-5.5 7t-7.5 9q-4 6 -7.5 11.5t-6.5 10.5q-3 6 -6 12.5t-6 12.5q35 21 63 46.5t48 54.5z" />
    <glyph glyph-name="uniE96C" unicode="&#xf96c;" 
d="M860 783q-6 6 -14.5 6t-14.5 -6l-6 -6q-6 -6 -6 -14.5t6 -14.5q3 -3 6.5 -4.5t7.5 -1.5t7.5 1.5t6.5 4.5l7 6q6 6 6 14.5t-6 14.5zM999 947h-129q-9 0 -15 -6t-6 -14q0 -9 6 -15t15 -6h84l-70 -70q-6 -6 -6 -14.5t6 -14.5q3 -3 6.5 -4.5t7.5 -1.5t8 1.5t7 4.5l66 66v-76
q0 -8 6 -14t14 -6q9 0 15 6t6 14v130q0 8 -6 14t-15 6zM999 93q-8 0 -14 -6t-6 -14v-76l-166 166q49 54 76.5 124t27.5 148q0 84 -32 158q-31 74 -86.5 129t-128.5 87q-74 32 -158 32q-78 0 -148 -28t-124 -77l-171 171h85q8 0 14 6t6 14t-6 14t-14 6h-129q-9 0 -15 -6
t-6 -14v-129q0 -9 6 -15t15 -6q8 0 14 6t6 15v75l166 -166q-49 -54 -77 -123.5t-28 -148.5q0 -78 28 -148t77 -124l-166 -166v76q0 8 -6 14t-14 6q-9 0 -15 -6t-6 -14v-129q0 -9 6 -15t15 -6h129q9 0 15 6t6 15q0 8 -6 14t-15 6h-84l170 171q54 -49 124 -77t148 -28t148 28
t124 77l170 -171h-84q-9 0 -15 -6t-6 -14q0 -9 6 -15t15 -6h129q9 0 15 6t6 15v129q0 9 -6 14.5t-15 5.5zM512 70q-75 0 -142 29q-66 29 -115.5 78.5t-78.5 115.5q-29 67 -29 142q0 76 29 142q29 67 78.5 116.5t115.5 77.5q67 29 142 29t142 -29q66 -28 115.5 -77.5
t78.5 -116.5q29 -66 29 -142q0 -75 -29 -142q-29 -66 -78.5 -115.5t-115.5 -78.5q-67 -29 -142 -29zM593 679q-10 12 -24.5 18.5t-30.5 6.5h-52q-15 0 -29.5 -6.5t-25.5 -18.5q-11 -11 -16.5 -26t-4.5 -31l3 -35l5 -82q2 -24 14.5 -44t34.5 -32q10 -6 21.5 -9t23.5 -3
t23.5 3t22.5 9q21 11 34 31.5t14 44.5l6 94l2 23q1 16 -4.5 31t-16.5 26zM451 625q-1 7 1.5 14t7.5 13q6 5 12.5 8t13.5 3h38l-7 -20q-2 -3 -16.5 -14.5t-48.5 -17.5zM565 508q0 -14 -7.5 -25.5t-19.5 -17.5q-12 -7 -26 -7t-26 7q-12 6 -19.5 18t-7.5 25l-4 62q28 4 47 13
t30 18q3 -2 5 -3.5t5 -2.5q5 -3 12 -5.5t17 -4.5zM561 631q-1 1 -2 1.5t-2 0.5l7 18q4 -5 6.5 -11.5t2.5 -13.5q-5 2 -8 3t-4 2zM736 284q-8 43 -39.5 74.5t-74.5 39.5q-6 1 -13 1.5t-13 0.5h-26q-4 0 -7.5 -1.5t-6.5 -4.5l-44 -43l-44 44q-3 2 -6.5 4t-7.5 2h-26
q-6 0 -13 -1t-13 -2q-43 -8 -74.5 -39.5t-39.5 -74.5q-2 -13 1.5 -26t11.5 -24q9 -10 21 -15.5t25 -5.5h329q14 0 26 5.5t21 15.5q8 11 11.5 23.5t1.5 26.5zM691 260q-1 -2 -5 -4.5t-10 -2.5h-328q-6 0 -10 2.5t-5 4.5q-2 2 -4 6.5t-1 9.5q6 31 28.5 53.5t52.5 28.5
q5 1 10 1.5t9 0.5h17l53 -52q2 -3 6 -4.5t8 -1.5t8 1.5t6 4.5l53 52h17q5 0 9.5 -0.5t9.5 -1.5q30 -6 52.5 -28.5t28.5 -53.5q1 -5 -1 -9.5t-4 -6.5z" />
    <glyph glyph-name="uniE96D" unicode="&#xf96d;" 
d="M959 850h-674q-27 0 -46 -19t-19 -46v-200q-14 -3 -26 -9.5t-21 -16.5q-13 -14 -19 -31t-5 -35l3 -43l6 -99q2 -29 17 -52.5t40 -37.5q13 -7 26.5 -10t26.5 -3q14 0 27.5 3.5t26.5 9.5q7 4 13 9l12 10h612q27 0 46 19t19 46v440q0 27 -19 46t-46 19zM191 474l-1 21
q-1 10 2.5 19.5t10.5 16.5t15.5 11t18.5 4h53l-11 -31q-3 -3 -22 -19t-66 -22zM338 353q-2 -17 -11.5 -32t-24.5 -24q-16 -9 -33.5 -9t-33.5 9t-25.5 24t-10.5 32l-5 80q37 5 61 16t38 23q3 -3 6.5 -5t7.5 -4q6 -4 15 -7t22 -6zM347 495v-4q-9 3 -14 5t-7 3q-3 1 -5 2.5
t-3 2.5l12 31l4 -4q7 -7 10.5 -16.5t2.5 -19.5zM983 346q0 -10 -7 -17.5t-17 -7.5h-587q3 7 4.5 14.5t1.5 15.5l1 2h524q9 0 15 6t6 14t-6 14t-15 6h-22v336q0 9 -6 15t-14 6h-99q-8 0 -14 -6t-6 -15v-336h-25v146q0 9 -6 15t-15 6h-98q-9 0 -15 -6t-6 -15v-146h-23v256
q0 9 -6 15t-15 6h-98q-9 0 -15 -6t-6 -15v-256h-33l5 71l2 29q1 17 -4.5 33t-16.5 29v202q0 8 -6 14t-14 6t-14 -6t-6 -14v-175q-7 2 -13.5 3.5t-13.5 1.5h-39v198q0 10 7 17.5t17 7.5h674q10 0 17 -7.5t7 -17.5v-439zM455 393v236h57v-236h-57zM618 393v126h58v-126h-58z
M783 393v316h57v-316h-57zM536 101q-9 51 -46.5 88.5t-88.5 47.5q-7 1 -15 2t-16 1h-31q-4 0 -8 -2t-6 -4l-57 -57l-56 57q-3 2 -6.5 4t-7.5 2h-31q-8 0 -16 -1t-15 -2q-51 -10 -88 -47.5t-47 -88.5q-2 -15 1.5 -29.5t13.5 -26.5t24 -18.5t29 -6.5h399q15 0 29 6.5t24 18.5
t13.5 26.5t1.5 29.5zM490 71q-4 -5 -10 -7.5t-12 -2.5h-399q-6 0 -12 2.5t-10 7.5t-5.5 11t-0.5 12q7 38 35 66.5t67 35.5l12 2l12 1h22l65 -65q6 -6 14.5 -6t14.5 6l64 65h23q6 0 12 -1l12 -2q38 -7 66 -35.5t35 -66.5q2 -6 0.5 -12t-5.5 -11zM944 790q-8 0 -14 -6t-6 -14
v-78q0 -8 6 -14t14 -6q9 0 15 6t6 14v78q0 8 -6 14t-15 6zM944 648q-8 0 -14 -6t-6 -15v-10q0 -8 6 -14t14 -6q9 0 15 6t6 14v10q0 9 -6 15t-15 6z" />
    <glyph glyph-name="uniE96E" unicode="&#xf96e;" 
d="M1013 584q-4 3 -9 3.5t-10 -0.5l-174 -63q-16 -6 -28.5 -17.5t-19.5 -27.5l-4 -12q-23 6 -61 19.5t-80 35.5q-62 32 -111 21.5t-90 -41.5q-21 -1 -48 -3t-55 -5q-18 -1 -34.5 -2.5t-30.5 -2.5q0 8 -2 16.5t-5 15.5q-8 16 -20.5 27.5t-28.5 17.5l-173 63q-5 2 -10 1
t-10 -4q-4 -3 -6.5 -7.5t-2.5 -9.5v-426q0 -9 6.5 -15t14.5 -6h63q20 0 37.5 8.5t28.5 23.5q7 -5 14.5 -10.5t14.5 -11.5q20 -14 38 -27.5t27 -20.5q60 -50 120 -96t74 -55q13 -8 34 -16t40 -8q7 0 22.5 2t27.5 12q13 -5 26.5 -4.5t26.5 6.5q13 5 23.5 15.5t16.5 23.5
q12 -2 26 -0.5t27 8.5q12 6 21 15t13 20q12 -1 24 2.5t23 12.5q16 12 23 28.5t5 34.5l54 30q12 -16 30 -26t38 -10h62q9 0 15.5 6.5t6.5 15.5v426q0 5 -2.5 9.5t-7.5 7.5zM124 232q-5 -12 -16 -19.5t-24 -7.5h-41v374l145 -53q8 -3 14.5 -8.5t9.5 -13.5q4 -8 4.5 -16.5
t-2.5 -16.5zM763 95q-6 -4 -12.5 -5.5t-9.5 1.5l-2 2q-11 9 -52.5 51t-72.5 75q-7 6 -15.5 6t-15.5 -6q-6 -6 -6 -15t6 -15q7 -8 52 -54t69 -68q-2 -7 -7 -11.5t-8 -5.5q-11 -6 -20.5 -5.5t-13.5 4.5l-1 1q-19 15 -56 53.5t-48 50.5q-6 6 -14.5 6.5t-15.5 -5.5
q-6 -6 -6.5 -14.5t5.5 -15.5q0 -1 36 -38.5t63 -61.5q-3 -7 -8 -13t-12 -9q-5 -2 -12.5 -2.5t-16.5 6.5q-23 20 -59 57.5t-45 46.5q-6 7 -15 7t-15 -6q-7 -6 -7 -14.5t6 -15.5q10 -11 37 -39t51 -51q-2 -1 -5 -1h-6q-10 0 -25.5 5.5t-24.5 11.5q-11 8 -70 52.5t-120 95.5
q-9 7 -27.5 21.5t-37.5 28.5q-11 8 -20 15t-16 12l80 213q15 0 35 1.5t42 3.5q12 1 24.5 2.5t24.5 2.5q-19 -19 -39 -49.5t-17 -62.5q2 -14 9.5 -26t20.5 -20q26 -16 66.5 -5t64.5 40q15 2 26 6t22 9q19 -17 43 -37.5t50 -42.5q46 -37 91 -76t58 -63q8 -13 1.5 -22t-9.5 -12
zM799 164q-21 28 -62.5 64.5t-86.5 73.5l-57 48l-45 40q-5 5 -12 6t-13 -2q-17 -9 -27.5 -13t-28.5 -6q-5 0 -9 -3t-7 -7q-13 -20 -40 -28.5t-38 -1.5q-6 4 -8 8t-2 7q-2 13 11 35t36 45q56 56 101 68.5t97 -14.5q50 -26 94.5 -41t64.5 -20q1 -2 1.5 -4.5t1.5 -5.5l82 -220z
M939 162q-13 0 -24 7.5t-16 20.5l-90 238q-3 9 -2.5 17t4.5 16q3 8 9.5 14t14.5 8l145 53v-374h-41zM511 722q-4 0 -7 -4.5t-3 -8.5q0 -9 13.5 -18.5t35.5 -9.5v-8q0 -2 1.5 -3.5t4.5 -1.5t5 1.5t2 3.5v8q20 3 31.5 15t11.5 34q0 24 -13.5 34t-29.5 16v48q13 -1 18.5 -5
t10.5 -4t7.5 5t2.5 9q0 8 -13.5 12t-25.5 5v6q0 2 -2 3.5t-5 1.5t-5 -1.5t-2 -3.5v-7q-16 -2 -30 -11.5t-14 -32.5q0 -22 14 -31t30 -15v-56q-17 2 -24.5 10.5t-13.5 8.5zM562 754q8 -4 14.5 -9.5t6.5 -16.5q0 -10 -6 -16t-15 -8v50zM528 808q0 9 6.5 13.5t16.5 6.5v-43
q-10 3 -16.5 8t-6.5 15zM554 609q67 0 114 47t47 114q0 66 -47 113t-114 47t-114 -47t-47 -113q0 -67 47 -114t114 -47zM554 902q55 0 93.5 -39t38.5 -93q0 -55 -38.5 -93.5t-93.5 -38.5t-93.5 38.5t-38.5 93.5q0 54 38.5 93t93.5 39z" />
    <glyph glyph-name="uniE96F" unicode="&#xf96f;" 
d="M984 583l-461 338q-6 4 -13 4t-12 -4l-466 -340q-5 -4 -7.5 -9t-2.5 -10v-596q0 -9 6.5 -15t14.5 -6h936q9 0 15 5.5t8 13.5v591q0 8 -3.5 14.5t-14.5 13.5zM103 -13l338 261l58 -42q5 -6 11.5 -5.5t13.5 5.5l56 41l335 -260h-812zM64 526l343 -253l-343 -266v519z
M613 271l347 255v-524zM511 879l429 -316l-429 -316l-429 317z" />
    <glyph glyph-name="uniE970" unicode="&#xf970;" 
d="M981 580h-59v107q0 20 -14 33.5t-33 13.5h-422l-86 119h-320q-20 0 -33.5 -13.5t-13.5 -32.5v-746q0 -7 2.5 -14t6.5 -13q6 -8 15 -12.5t20 -4.5h764q14 0 26 9t15 22l175 479v3q0 22 -12 36t-31 14zM34 807q0 5 3.5 8.5t9.5 3.5h303l85 -119h440q5 0 8.5 -4t3.5 -9v-107
h-677q-12 -2 -21.5 -10.5t-13.5 -20.5l-141 -385v643zM817 58q-1 -3 -3.5 -5t-5.5 -2h-764q-3 0 -5 1.5t-3 2.5t-1.5 3t-0.5 4l174 477q1 3 3.5 5t5.5 2h764q5 0 6.5 -5t2.5 -9z" />
    <glyph glyph-name="uniE971" unicode="&#xf971;" 
d="M684 290q-18 0 -31 11.5t-13 26.5q0 16 13 27t31 11t31 -11t13 -27q0 -8 6 -14t14 -6t14 6t6 14q0 28 -18.5 49t-45.5 27v11q0 8 -6 14t-14 6t-14 -6t-6 -14v-11q-27 -6 -45.5 -27t-18.5 -49q0 -32 24.5 -55t59.5 -23q18 0 31 -11t13 -27q0 -15 -13 -26.5t-31 -11.5
t-31 11.5t-13 26.5q0 9 -6 14.5t-14 5.5t-14 -5.5t-6 -14.5q0 -27 18.5 -48t45.5 -27v-9q0 -8 6 -14t14 -6t14 6t6 14v9q27 6 45.5 27t18.5 48q0 33 -24.5 55.5t-59.5 22.5zM903 409q-20 31 -47 55t-59 40q-8 3 -16 0.5t-11 -10.5q-4 -7 -1 -15t10 -11q57 -28 91 -82
t34 -117q0 -27 -6.5 -53t-19.5 -50q-3 -7 -1 -15t10 -12q2 -1 4.5 -1.5t4.5 -0.5q5 0 10 2.5t8 7.5q14 28 22 59t8 63q0 38 -10.5 73.5t-30.5 66.5zM714 529q-8 0 -14 -6t-6 -14t6 -14t15 -6q8 0 14 6t6 14t-5.5 14t-15.5 6zM589 71q-57 27 -91 81t-34 117q0 27 6.5 53.5
t19.5 49.5q3 8 1 15.5t-10 11.5q-7 4 -15 1.5t-12 -9.5q-14 -28 -22 -59t-8 -63q0 -37 10.5 -73t30.5 -67t47 -54.5t59 -39.5q2 -1 4.5 -1.5t4.5 -0.5q6 0 10.5 3t7.5 8q4 8 1 15.5t-10 11.5zM653 49q-8 0 -14 -5.5t-6 -14.5q0 -8 5.5 -14t15.5 -6q8 0 14 6t6 14t-6 14
t-15 6zM775 597l-4 8l-5 8h52q38 0 65 27t27 65t-27 65t-65 27h-160q7 11 11.5 24.5t4.5 27.5q0 38 -27 65t-65 27h-490q-38 0 -65 -27t-27 -65t27 -65t65 -27h160q-7 -11 -11.5 -24t-4.5 -28q0 -14 4.5 -27.5t11.5 -24.5h-52q-38 0 -65 -27t-27 -65q0 -22 9.5 -40.5
t25.5 -31.5q-16 -12 -25.5 -31t-9.5 -41t9.5 -40.5t25.5 -31.5q-16 -12 -25.5 -31t-9.5 -41t9.5 -40.5t25.5 -31.5q-16 -12 -25.5 -31t-9.5 -41q0 -38 27 -65t65 -27h236q46 -50 110.5 -79t137.5 -29q70 0 132 27t108.5 73t72.5 108q27 62 27 132q0 59 -19 112
q-18 53 -51.5 96t-79.5 74q-45 31 -99 46zM818 757q21 0 36.5 -15t15.5 -37q0 -21 -15.5 -36.5t-36.5 -15.5h-490q-21 0 -36.5 15.5t-15.5 36.5q0 22 15.5 37t36.5 15h490zM92 797q-21 0 -36.5 15.5t-15.5 36.5q0 22 15.5 37t36.5 15h490q21 0 36.5 -15t15.5 -37
q0 -21 -15.5 -36.5t-36.5 -15.5h-490zM200 613h490q6 0 11.5 -1t11.5 -4q-7 1 -15 1h-14q-70 0 -132 -26.5t-109 -73.5h-243q-21 0 -36.5 15.5t-15.5 36.5q0 22 15.5 37t36.5 15zM200 469h209q-17 -23 -30 -49t-21 -55h-158q-21 0 -36.5 15.5t-15.5 36.5q0 22 15.5 37
t36.5 15zM200 325h149q-3 -13 -4 -27.5t-1 -28.5q0 -12 1 -24l2 -24h-147q-21 0 -36.5 15.5t-15.5 36.5q0 22 15.5 37t36.5 15zM200 77q-21 0 -36.5 15.5t-15.5 36.5q0 22 15.5 37t36.5 15h156q7 -28 19 -54t29 -50h-204zM684 -31q-62 0 -117 24q-54 23 -95 64t-64 96
q-24 54 -24 116t24 117q23 54 64 95t95 65q55 23 117 23t117 -23q54 -24 95 -65t64 -95q24 -55 24 -117t-24 -116q-23 -55 -64 -96t-95 -64q-55 -24 -117 -24z" />
    <glyph glyph-name="uniE972" unicode="&#xf972;" 
d="M952 544h-151l206 206q8 8 12.5 18t4.5 22q0 11 -4.5 21t-12.5 18l-21 22q-17 16 -40 16t-39 -16l-306 -307h-535q-27 0 -46.5 -19t-19.5 -47v-409q0 -27 19 -46.5t47 -19.5h886q27 0 46.5 19.5t19.5 46.5v409q0 27 -19.5 46.5t-46.5 19.5zM936 822q4 4 10.5 4t10.5 -4
l22 -22q2 -2 3 -5t1 -6t-1 -5.5t-3 -4.5l-52 -52l-37 36l-6 6zM855 741l43 -43l-408 -408l-64 -22l21 65zM977 69q0 -10 -7.5 -17.5t-17.5 -7.5h-886q-11 0 -18 7.5t-7 17.5v409q0 11 7 18t18 7h494l-145 -145q-2 -1 -3 -3.5t-2 -4.5l-36 -107q-2 -6 -0.5 -11.5t5.5 -9.5
q3 -3 6.5 -4.5t7.5 -1.5h3l4 1l107 36q2 0 4.5 1.5t3.5 3.5l246 245h191q10 0 17.5 -7t7.5 -18v-409zM902 131h-12q-8 0 -14 -6t-6 -14q0 -9 6 -15t14 -6h12q9 0 15 6t6 15q0 8 -6 14t-15 6zM809 131h-464q-9 0 -15 -6t-6 -14q0 -9 6 -15t15 -6h464q8 0 14 6t6 15q0 8 -6 14
t-14 6zM902 249h-304q-8 0 -14 -6t-6 -15q0 -8 6 -14t14 -6h304q8 0 14 6t6 14q0 9 -5.5 15t-14.5 6zM215 315v75q20 -1 29 -7t16 -6q8 0 12 8t4 13q0 13 -21 19.5t-40 7.5v10q0 3 -3.5 5.5t-7.5 2.5q-5 0 -8 -2.5t-3 -5.5v-11q-26 -3 -48.5 -18.5t-22.5 -50.5
q0 -36 23 -50.5t48 -22.5v-88q-28 2 -39.5 15.5t-20.5 13.5q-7 0 -12 -7t-5 -14q0 -14 21 -29t56 -15v-12q0 -3 3 -5.5t8 -2.5q4 0 7.5 2.5t3.5 5.5v13q30 4 49 23t19 54q0 38 -21.5 54t-46.5 25zM195 322q-14 5 -24.5 12.5t-10.5 23.5q0 15 10 22.5t25 9.5v-68zM213 195v78
q14 -5 23.5 -14.5t9.5 -26.5q0 -16 -9 -25t-24 -12z" />
    <glyph glyph-name="uniE973" unicode="&#xf973;" 
d="M512 743q-45 0 -84 -17t-68 -46t-46 -68t-17 -83t17 -83t46 -68.5t68 -45.5q39 -17 84 -17q44 0 83 16q39 17 68 46.5t46 68.5t17 83t-17 83t-46 68t-68 46t-83 17zM512 366q-68 0 -115.5 48t-47.5 115t47.5 115t115.5 48q67 0 114.5 -48t47.5 -115t-47.5 -115
t-114.5 -48zM512 947h-15q-77 -3 -146 -32q-69 -30 -122.5 -80t-87.5 -117t-41 -144q-3 -30 -1.5 -60t6.5 -58l1 -4l2 -10q5 -21 12 -41.5t16 -39.5q16 -38 42 -85q27 -48 67.5 -102t96.5 -114t132 -123q8 -7 18 -10.5t20 -3.5q11 0 20.5 3.5t17.5 10.5q76 63 132 123
q57 60 97 114t67 101q26 47 42 85q9 20 16 40.5t12 41.5q1 4 1.5 7t1.5 6q3 20 5 39.5t2 39.5q0 85 -33 160q-33 76 -89 132t-131 89q-76 32 -161 32zM867 464l-1 -3l-1 -7q-4 -19 -10 -37t-14 -36q-16 -36 -41 -81t-63.5 -96.5t-92.5 -109.5q-54 -57 -127 -117
q-1 -1 -2.5 -1.5t-2.5 -0.5t-2.5 0.5t-2.5 1.5q-73 60 -127 117q-54 58 -93 109.5t-64 96.5q-25 46 -40 82q-8 17 -14 35t-11 37q-1 4 -2 6v5q-5 25 -6 51.5t1 52.5q7 67 36 126q30 59 76.5 102.5t107.5 69.5q60 26 128 29q77 2 145 -25q69 -28 120 -77.5t80 -116.5
q30 -67 30 -144q0 -17 -1.5 -34t-5.5 -35z" />
    <glyph glyph-name="uniE974" unicode="&#xf974;" 
d="M534 475v14q31 8 51.5 34t20.5 60q0 33 -20.5 59t-51.5 35v89q14 -6 25.5 -15t15.5 -13q8 -8 18.5 -8t18.5 7q7 7 7.5 17.5t-7.5 18.5q-3 3 -24.5 21t-53.5 26v13q0 10 -7.5 17.5t-17.5 7.5q-11 0 -18.5 -7.5t-7.5 -17.5v-14q-30 -9 -50 -34.5t-20 -58.5q0 -34 20 -59.5
t50 -34.5v-87q-13 8 -24.5 18t-15.5 16q-7 8 -17.5 8.5t-18.5 -5.5q-9 -7 -9.5 -17.5t5.5 -19.5q4 -3 26 -24t54 -31v-14q0 -11 7.5 -18.5t17.5 -7.5q11 0 18.5 7.5t7.5 17.5zM555 582q0 -12 -5.5 -22t-15.5 -16v77q10 -6 15.5 -16t5.5 -23zM464 725q0 12 5 21.5t14 16.5
v-75q-9 6 -14 16t-5 21zM483 88v-139q0 -11 7.5 -18.5t18.5 -7.5q10 0 17.5 7.5t7.5 18.5v29h168q56 0 96 40t40 96v110q0 11 -7.5 18.5t-18.5 7.5h-110q-56 0 -96 -40t-40 -96v-85h-32v336q56 5 104 29q49 25 84.5 64t56.5 90q20 50 20 107q1 61 -22 114t-62.5 92.5
t-92.5 62.5t-113 23q-61 0 -114 -23t-92.5 -62.5t-62.5 -92.5t-23 -113q0 -57 21 -108t56.5 -90t84.5 -63q48 -25 104 -30v-225h-26v85q0 56 -39.5 95.5t-95.5 39.5h-111q-5 0 -9.5 -1.5t-8.5 -5.5q-3 -4 -5 -8.5t-2 -9.5v-110q0 -56 39.5 -96t96.5 -40zM322 140
q-36 0 -60.5 24.5t-24.5 59.5v85h85q35 0 59.5 -25t24.5 -60v-84h-84zM269 655q0 50 19 94t51.5 76.5t76.5 51.5q43 19 93 19q49 0 93 -19t76.5 -51.5t51.5 -76.5t19 -94q0 -49 -19 -93t-51.5 -76.5t-76.5 -51.5t-93 -19q-50 0 -93 19q-44 19 -76.5 51.5t-51.5 76.5t-19 93z
M787 114q0 -35 -25 -60t-60 -25h-85v85q0 35 25 60t60 25h85v-85z" />
    <glyph glyph-name="uniE975" unicode="&#xf975;" 
d="M539 363l-48 37q-11 9 -22.5 22t-11.5 35t12 37.5t25 28.5q42 33 77 74t35 115q0 77 -36 119.5t-59 61.5h83l87 54h-263q-54 0 -124.5 -16.5t-127.5 -63.5q-43 -37 -64 -85t-21 -94q0 -39 15 -76q14 -38 42.5 -67.5t69.5 -47.5t94 -18q10 0 21 0.5t22 1.5
q-5 -12 -9.5 -23.5t-4.5 -28.5q0 -31 13 -51.5t27 -38.5q-45 -4 -118.5 -14t-135.5 -48q-59 -35 -81 -81t-22 -82q0 -37 18 -71q17 -35 53 -61.5t89 -42.5q54 -16 127 -16q86 0 151 22q66 22 110 57.5t67 80.5q22 45 22 93q0 69 -34 109.5t-78 77.5zM365 516q-43 0 -75 25
q-31 24 -51.5 60.5t-30.5 77.5t-10 75q0 26 6 52t23 47q16 20 42 32t52 12q41 0 73 -25q31 -25 52 -62t32 -80t11 -79q0 -18 -5.5 -46t-28.5 -51q-16 -17 -40.5 -27.5t-49.5 -10.5zM366 -21q-107 0 -170.5 46t-63.5 117t46 100.5t68 37.5q42 14 86.5 17.5t53.5 3.5h16l15 -1
q76 -54 110.5 -89.5t34.5 -87.5q0 -62 -50 -103t-146 -41zM876 518v134h-66v-134h-133v-66h133v-135h66v135h134v66h-134z" />
    <glyph glyph-name="uniE976" unicode="&#xf976;" 
d="M809 313q-16 16 -34.5 24.5t-38.5 8.5t-38.5 -8.5t-35.5 -24.5l-68 -68q-4 2 -8.5 4t-8.5 5q-5 2 -10.5 5t-10.5 6q-48 30 -92 70.5t-86 91.5q-20 26 -34 48t-24 44q13 12 26 25l24 24q4 5 9 9.5t9 9.5q34 34 34 74.5t-34 74.5l-59 59q-5 5 -10 10.5t-10 10.5l-40 40
q-16 16 -34.5 24t-38.5 8t-38.5 -8t-35.5 -24l-73 -75q-21 -20 -32.5 -45.5t-14.5 -54.5q-4 -47 6.5 -89t21.5 -71q26 -71 66.5 -138.5t98.5 -137.5q36 -43 75 -80q39 -38 81.5 -71.5t87.5 -61.5q46 -29 95 -52q37 -18 85.5 -35.5t104.5 -21.5h14q37 0 68.5 13.5t55.5 40.5
l1 1q9 10 19 20l19 19q7 6 14 13t14 15q16 16 24.5 35t8.5 39t-8.5 39t-25.5 36zM887 85q-7 -7 -13.5 -13t-13.5 -13l-21 -21l-21 -22q-16 -18 -36 -26.5t-45 -8.5h-10q-48 4 -91.5 19.5t-76.5 31.5q-46 22 -89 49t-83 58t-77 67t-70 76q-55 67 -93 130t-63 129
q-15 40 -20.5 73t-3.5 62q2 19 9 35t21 29l73 74q8 8 16.5 11.5t16.5 3.5q10 0 18.5 -5t13.5 -10l119 -119q17 -17 17 -33.5t-17 -33.5l-9 -10l-10 -9q-13 -14 -26.5 -27t-27.5 -25q0 -1 -1 -1q-14 -14 -14 -27t3 -23l1 -1q11 -28 28 -55.5t42 -58.5q44 -55 92 -98.5
t100 -76.5q6 -4 13 -8l13 -6l11 -6l12 -6l1 -1q6 -3 11 -4.5t11 -1.5q13 0 21.5 6t10.5 9l74 74q6 6 14.5 11t18.5 5t18 -5t13 -10l120 -120q16 -17 16 -34t-16 -34zM553 704q43 -8 81 -27.5t69 -50.5q30 -31 50 -69t27 -80q2 -11 10 -17.5t19 -6.5h5q12 2 19 12t5 22
q-9 51 -33 97t-61 83t-83 61t-97 33q-12 2 -22 -5t-12 -19q-2 -11 4.5 -21t18.5 -12zM1023 495q-7 43 -21 83q-13 40 -32.5 77.5t-44.5 72.5q-26 34 -56 65q-31 30 -65 55q-35 26 -72.5 45t-77.5 33q-40 13 -82 21q-12 2 -22 -5t-12 -19t5 -22t19 -12q76 -13 143.5 -48
t122.5 -90q55 -54 90 -122t47 -143q2 -11 10.5 -17.5t18.5 -6.5h5q12 2 19 12t5 21z" />
    <glyph glyph-name="uniE977" unicode="&#xf977;" 
d="M953 742q-32 48 -74 86q-41 38 -90 64.5t-104 40.5q-54 14 -112 14q-8 0 -14 -6t-6 -14v-433q0 -5 2.5 -10t7.5 -8q3 -1 5.5 -1.5t4.5 -0.5q3 0 6 1t5 2l363 237q3 2 5.5 5t2.5 7q1 4 0.5 8t-2.5 8zM594 532v374q46 -2 91 -15q44 -12 84.5 -34t74.5 -52q35 -31 63 -69z
M891 623q-4 7 -12.5 9t-15.5 -3l-331 -215v394q0 9 -6 15t-14 6q-78 0 -151 -26t-134 -75q-40 -32 -71 -72t-52.5 -85t-33.5 -94q-11 -50 -11 -101q0 -45 9 -89t25.5 -84.5t41.5 -77.5t57 -69t69 -57t77.5 -41.5t84.5 -25.5t89 -9t89 9t84.5 25.5t77.5 41.5t69 57t57 69
t41.5 77.5t25.5 84.5t9 89q0 66 -19 129t-55 118zM492 787v-353l-223 275q49 35 106 55t117 23zM512 -36q-85 0 -160 32q-75 33 -131 89t-89 131q-32 75 -32 160q0 44 9 87q9 42 26.5 81.5t43.5 74.5t58 64l259 -320q5 -6 12.5 -7t14.5 3l345 225q28 -47 42 -100t14 -108
q0 -85 -32 -160q-33 -75 -89 -131t-131 -89q-75 -32 -160 -32zM805 490q-4 7 -12.5 8.5t-15.5 -2.5l-133 -87q-7 -4 -8.5 -12.5t2.5 -15.5q3 -4 7.5 -6.5t10.5 -2.5q2 0 5 0.5t6 2.5l133 87q6 4 8 12.5t-3 15.5zM868 531q-4 7 -12.5 8.5t-15.5 -2.5l-7 -5q-7 -5 -9 -13
t3 -15q3 -5 7.5 -7t9.5 -2q3 0 5.5 0.5t5.5 2.5l7 5q7 4 9 12.5t-3 15.5z" />
    <glyph glyph-name="uniE978" unicode="&#xf978;" 
d="M967 670q-26 52 -65 97t-86 80q-7 5 -15.5 4t-13.5 -8t-4 -15.5t8 -13.5q44 -32 79.5 -74t59.5 -90q26 -50 39 -104t13 -111q0 -97 -37 -183q-37 -85 -100.5 -149t-149.5 -101t-183 -37t-183 37t-149.5 101t-100.5 149q-37 86 -37 183t37 183t100.5 150t149.5 101t183 37
q9 0 15 6t6 14q0 9 -6 15t-15 6q-106 0 -199 -40t-162.5 -109.5t-110.5 -163.5q-40 -93 -40 -199t40 -199q41 -93 110.5 -162.5t162.5 -110.5q93 -40 199 -40t199 40q93 41 162.5 110.5t110.5 162.5q40 93 40 199q0 61 -14.5 121t-42.5 114zM381 673q-5 -3 -8 -7.5t-3 -10.5
v-458q0 -8 6.5 -14t14.5 -6q9 0 15 6t6 14v421l309 -183l-227 -147q-7 -4 -9 -12.5t3 -15.5q4 -8 12.5 -9.5t15.5 2.5l256 165q4 3 6.5 7.5t2.5 10.5q0 5 -2.5 9.5t-7.5 7.5l-369 220q-5 3 -10.5 3t-10.5 -3z" />
    <glyph glyph-name="uniE979" unicode="&#xf979;" 
d="M992 384q-28 23 -63.5 21t-60.5 -28l-88 -95q-8 25 -29 42.5t-49 20.5q11 8 22.5 17t21.5 20q47 47 72.5 107t25.5 126q0 68 -26 129q-26 60 -71.5 105.5t-105.5 71.5q-61 26 -129 26t-128 -26t-105 -71.5t-71 -105.5t-26 -129q0 -62 22 -118.5t63 -101.5
q-11 -6 -21.5 -13t-19.5 -15q-13 17 -32 27.5t-42 10.5h-122q-12 0 -21 -8.5t-9 -21.5v-422q0 -12 9 -21t21 -9h122q29 0 52.5 17t32.5 44q1 -1 3 -1h454q49 0 93.5 22.5t74.5 61.5l144 194q21 29 17 64.5t-31 58.5zM182 13q0 -12 -9 -21t-21 -9h-92v362h92q12 0 21 -8.5
t9 -21.5v-302zM242 615q0 56 21 106q22 50 58.5 86.5t85.5 58.5q49 21 105 21t106 -21q49 -22 86 -58.5t59 -86.5q21 -50 21 -106q0 -53 -20 -101t-54.5 -84t-80.5 -59q-47 -22 -100 -25q-4 1 -7.5 2.5t-6.5 4.5l-14 12q-36 32 -80.5 44.5t-89.5 5.5q-42 38 -65.5 90.5
t-23.5 109.5zM958 297l-144 -194q-21 -28 -53 -44t-67 -16h-452v259l21 18q42 37 99 37t99 -37q8 -7 24.5 -21t26.5 -14h182q13 0 21.5 -8.5t8.5 -21.5q0 -12 -8.5 -21t-21.5 -9h-215q-12 0 -21 -8.5t-9 -21.5q0 -12 9 -21t21 -9h235q19 0 36 7.5t30 21.5l132 142
q8 8 19.5 9t20.5 -6q10 -7 11.5 -19.5t-5.5 -22.5zM512 645q-12 0 -21 9t-9 21q0 10 5.5 17.5t14.5 10.5q11 5 24 -0.5t25 -19.5q8 -10 20.5 -11t21.5 7q10 8 11 20.5t-7 21.5q-12 15 -26 24.5t-29 14.5v35q0 13 -9 21.5t-21 8.5t-21 -8.5t-9 -21.5l-1 -35
q-26 -10 -42.5 -33t-16.5 -52q0 -37 26.5 -63.5t63.5 -26.5q12 0 21 -8.5t9 -21.5q0 -9 -5 -16.5t-13 -10.5q-10 -5 -22 -1.5t-23 14.5q-8 9 -20.5 8.5t-21.5 -9.5t-8.5 -21t9.5 -21q10 -10 21 -17t23 -11v-35q0 -12 8.5 -21t21.5 -9q12 0 21 9t9 21v35q1 1 2.5 1.5t2.5 0.5
q25 11 40 33.5t15 49.5q0 37 -26.5 63.5t-63.5 26.5z" />
    <glyph glyph-name="uniE97A" unicode="&#xf97a;" 
d="M410 180q65 0 123.5 22t104.5 61l278 -278q5 -5 11 -7t12 -2q7 0 12.5 2t10.5 7q10 10 10 23.5t-10 22.5l-278 278q39 46 61.5 105t22.5 124q0 74 -29 139q-28 65 -76.5 113.5t-113.5 76.5q-65 29 -139 29t-139 -29q-66 -28 -114.5 -76.5t-76.5 -113.5q-28 -66 -28 -139
q0 -75 28 -140t76.5 -113.5t114.5 -76.5q65 -28 139 -28zM410 831q60 0 114 -24q53 -23 93 -62.5t63 -93.5q23 -53 23 -113q0 -61 -23 -114q-23 -54 -63 -93.5t-93 -62.5q-54 -23 -114 -23q-61 0 -114 23q-54 23 -93.5 63t-62.5 93t-23 114q0 60 23 113q23 54 63 93.5
t93 62.5q53 24 114 24z" />
    <glyph glyph-name="uniE97B" unicode="&#xf97b;" 
d="M243 819q-48 0 -81.5 -33.5t-33.5 -81.5q0 -47 34 -80.5t81 -33.5q48 0 81.5 33.5t33.5 80.5q0 48 -33.5 81.5t-81.5 33.5zM243 630q-31 0 -52.5 22t-21.5 52q0 31 21.5 52.5t52.5 21.5t52.5 -21.5t21.5 -52.5q0 -30 -21.5 -52t-52.5 -22zM489 888q-16 17 -37 26t-44 9
l-215 2q-34 0 -65.5 -12.5t-55.5 -37.5q-25 -23 -37.5 -54.5t-12.5 -66.5l2 -215q2 -21 10 -42.5t25 -38.5l513 -513l430 430zM570 4l-483 483q-11 11 -17 25t-6 30l-2 212q0 25 10 49t27 43q19 19 43 29.5t51 10.5l213 -2q15 0 29 -6t25 -17l484 -484z" />
    <glyph glyph-name="uniE97C" unicode="&#xf97c;" 
d="M922 805v40q0 42 -30 72t-72 30h-283q-21 0 -39.5 -7.5t-32.5 -22.5l-401 -401q-15 -14 -22.5 -32.5t-7.5 -39.5q0 -20 7.5 -38.5t22.5 -33.5l41 -40q-2 -6 -2.5 -12t-0.5 -11q0 -21 7.5 -39.5t22.5 -32.5l283 -284q15 -15 34 -22.5t38 -7.5q20 0 38.5 7.5t33.5 22.5
l401 401q14 14 22 33t8 39v283q0 34 -19 60t-49 36zM112 420q-5 5 -7.5 11.5t-2.5 12.5q0 7 2.5 13.5t7.5 10.5l401 401q4 5 10.5 7.5t13.5 2.5h283q14 0 24 -10t10 -24v-34h-249q-21 0 -39.5 -7.5t-32.5 -22.5l-391 -390zM912 402l-401 -401q-10 -10 -24 -10t-24 10
l-283 283q-5 5 -7.5 11.5t-2.5 12.5q0 7 2.5 13.5t7.5 10.5l401 401q4 5 10.5 7.5t13.5 2.5h283q14 0 24 -10t10 -24v-283q0 -7 -2.5 -13t-7.5 -11zM752 675q-42 0 -72 -29.5t-30 -72.5q0 -42 30 -72t72 -30t72 30t30 72q0 43 -30 72.5t-72 29.5zM752 540q-14 0 -24 9.5
t-10 24.5q0 14 10 24t24 10t24 -10t10 -24t-10 -24t-24 -10z" />
    <glyph glyph-name="uniE97D" unicode="&#xf97d;" 
d="M763 -77h-502q-54 0 -101 21q-48 20 -83.5 55.5t-55.5 83.5q-21 48 -21 102v501q0 54 21 101q20 48 55.5 83.5t83.5 56.5q47 20 101 20h502q54 0 101 -20q48 -21 83.5 -56.5t55.5 -83.5q21 -47 21 -101v-501q0 -54 -21 -102q-20 -48 -55.5 -83.5t-83.5 -55.5
q-47 -21 -101 -21zM261 889q-41 0 -78 -16t-65 -43.5t-44 -64.5q-15 -37 -15 -79v-501q0 -42 15 -79q16 -37 44 -64.5t65 -43.5t78 -16h502q41 0 78 16t65 43.5t43 64.5q16 37 16 79v501q0 42 -16 79q-15 37 -43 64.5t-65 43.5t-78 16h-502zM995 563h-361q-12 0 -20.5 8.5
t-8.5 20.5t8.5 21t20.5 9h361q12 0 20.5 -9t8.5 -21t-8.5 -20.5t-20.5 -8.5zM382 563h-353q-12 0 -20.5 8.5t-8.5 20.5t8.5 20.5t20.5 8.5h353q12 0 21 -8.5t9 -20.5t-9 -20.5t-21 -8.5zM512 207q-47 0 -89 18q-41 18 -72 49t-49 72q-18 42 -18 89t18 89t49 73t72 48
q42 18 89 18t89 -18q41 -17 72 -48t49 -73t18 -89t-18 -89q-18 -41 -49 -72t-72 -49q-42 -18 -89 -18zM512 605q-70 0 -120 -50t-50 -120t50 -119.5t120 -49.5t120 49.5t50 119.5t-50 120t-120 50zM843 639h-132q-12 0 -20.5 8.5t-8.5 20.5v131q0 13 8.5 21.5t20.5 8.5h132
q12 0 20.5 -8.5t8.5 -21.5v-131q0 -12 -8.5 -20.5t-20.5 -8.5zM740 697h73v73h-73v-73z" />
    <glyph glyph-name="uniE97E" unicode="&#xf97e;" 
d="M490 617q0 50 -19 94q-20 44 -52.5 77t-77.5 52q-44 20 -94 20t-94 -20q-45 -19 -78 -52t-52 -77t-19 -94q0 -51 19 -95t52 -77t77 -52q45 -19 95 -19q12 0 24 1t25 4q-11 -48 -27 -91q-15 -43 -32 -80t-34 -68q-17 -30 -29 -52q-7 -11 -12 -20.5t-9 -16.5
q-3 -6 -6 -17.5t7 -19.5q3 -3 6.5 -4.5t7.5 -1.5q7 0 15.5 4.5t15.5 9.5q10 6 25 16.5t39 28.5l1 1q43 38 78 82.5t62 93.5q22 40 38.5 83.5t27.5 89.5q18 74 19.5 128.5t0.5 71.5zM434 426q-12 -49 -30 -95q-18 -45 -42 -86.5t-55 -78.5q-30 -37 -66 -69q-6 -5 -15 -11.5
t-19 -13.5q14 25 33 59q18 34 37 76t35 91q17 49 26 104l5 31l-29 -11q-17 -5 -33.5 -8t-33.5 -3q-42 0 -80 16q-37 16 -65 44t-44 66q-16 37 -16 80q0 42 16 80q16 37 44 65t65 44t80 16q42 0 80 -16q37 -16 65 -44t44 -65q17 -37 17 -80v-3q1 -15 -0.5 -66.5t-18.5 -121.5
zM1023 616q0 51 -19 95t-52 77t-77 52q-45 19 -95 19t-94 -19t-77 -52t-52 -77t-19 -94q0 -51 19 -95t52 -77t77 -52t94 -19q12 0 24.5 1t24.5 4q-11 -48 -26 -91q-16 -43 -33 -80t-34 -67q-16 -31 -29 -53q-7 -11 -12 -20t-8 -16t-6.5 -18.5t6.5 -19.5q3 -3 6.5 -4.5
t7.5 -1.5q8 0 16 4.5t16 9.5q10 6 24.5 16.5t39.5 28.5l1 1q42 38 77 82.5t62 93.5q22 40 38.5 83.5t27.5 89.5q18 74 19.5 128.5t0.5 70.5zM967 426q-11 -50 -30 -95q-18 -45 -42 -86.5t-54 -78.5q-31 -37 -67 -70q-6 -4 -15 -10.5t-19 -13.5q14 24 33 59q19 34 37.5 76
t34.5 91q17 49 26 103l6 31l-30 -10q-16 -5 -33 -8t-34 -3q-42 0 -79 16q-38 16 -66 44t-44 66q-16 37 -16 80q0 42 16 80q16 37 44 65t65 44q38 16 80 16q43 0 80 -16q38 -16 66 -44t44 -65q16 -38 16 -80v-3q1 -15 -0.5 -66.5t-18.5 -121.5z" />
    <glyph glyph-name="uniE97F" unicode="&#xf97f;" 
d="M0 691h1024l-512 -512z" />
    <glyph glyph-name="uniE980" unicode="&#xf980;" 
d="M879 455l-707 488q-5 4 -12 4.5t-13 -3.5q-6 -3 -9.5 -8.5t-3.5 -12.5v-975q0 -7 3.5 -13t9.5 -9l6 -2l5 -1q4 0 7.5 1t6.5 4l707 487q5 4 8 9t3 11t-3 11.5t-8 8.5z" />
    <glyph glyph-name="uniE981" unicode="&#xf981;" 
d="M0 469h1024v-68h-1024v68z" />
    <glyph glyph-name="uniE982" unicode="&#xf982;" 
d="M1024 469h-478v478h-68v-478h-478v-68h478v-478h68v478h478v68z" />
    <glyph glyph-name="uniE983" unicode="&#xf983;" 
d="M1009 796q-15 15 -36 15t-36 -15l-614 -613l-236 236q-15 15 -36 15t-36 -15t-15 -36.5t15 -36.5l272 -272q15 -15 36 -15t36 15l650 650q15 15 15 36t-15 36z" />
    <glyph glyph-name="uniE984" unicode="&#xf984;" 
d="M975 898q-49 49 -118 49t-118 -49l-670 -670q-1 -1 -1.5 -2.5t-0.5 -2.5l-1 -2l-66 -275v-4q0 -2 0.5 -3.5t0.5 -3.5l1 -1q0 -1 1 -2.5t2 -2.5q2 -2 3.5 -3t2.5 -1q2 -1 4 -1.5t3 -0.5h3l2 1l275 66h3q1 1 2 1.5l3 1.5l1 1l668 669q49 48 49 117.5t-49 117.5zM949 872
q35 -34 38 -82.5t-26 -86.5l-181 181q38 29 86 26t83 -38zM857 597l-183 183l26 27l183 -184zM92 15q-5 6 -13 6t-13 -6l-14 -14l47 199l82 9l-11 -95v-2l1 -2v-2l1 -1v-3l2 -2q0 -1 0.5 -1.5t1.5 -0.5q0 -1 1 -1.5t1 -1.5q1 0 1.5 -0.5t1.5 -0.5q1 -1 2 -1t2 -1h6l95 10
l-9 -82l-199 -47l14 14q5 5 5 13t-5 13zM325 117l414 414q6 6 6 13.5t-6 13.5q-5 5 -12.5 5t-13.5 -5l-415 -415l-88 -10l10 89l414 414q6 6 6 13.5t-6 13.5q-5 5 -12.5 5t-13.5 -5l-415 -415l-58 -7l513 513l183 -183l-513 -513zM910 649l-184 184l26 26l184 -183z" />
    <glyph glyph-name="uniE985" unicode="&#xf985;" 
d="M890 476q-45 42 -94 68q-50 25 -96.5 38.5t-84.5 18.5q-39 4 -60 5v149q0 9 -6.5 15t-15.5 6q-3 0 -6.5 -1t-6.5 -4l-363 -298q-7 -6 -8 -14.5t5 -15.5l2 -1l1 -2l363 -299q7 -6 15.5 -5t14.5 8q2 3 3.5 6.5t1.5 7.5v155q22 6 72 11q50 6 111.5 -9.5t127.5 -63.5
q65 -47 118 -146q3 -5 8 -8t11 -3q5 0 9.5 2t7.5 7q2 3 3 6t1 7q0 57 -9 109q-8 52 -25 97t-42 84q-25 38 -58 70zM648 366q-53 0 -87 -8.5t-35 -9.5q-6 -2 -10 -7.5t-4 -12.5v-125l-308 253l308 254v-126q0 -4 1.5 -8t5.5 -7q3 -3 7 -4.5t8 -1.5q1 0 34 -1q32 -1 81 -11
t106 -35q57 -24 106 -71q48 -46 77 -108.5t39 -139.5q-39 52 -82 85t-86 51.5t-84 25.5t-77 7zM399 173q-1 0 -1 1l-343 282l343 283q7 5 8 14t-5 15q-5 7 -14 8.5t-15 -4.5l-1 -1l-363 -298q-7 -6 -8 -14.5t5 -15.5q0 -1 1 -1.5t2 -1.5l363 -299q6 -6 15 -5.5t15 7.5
q5 7 4.5 15.5t-6.5 14.5z" />
    <glyph glyph-name="uniE986" unicode="&#xf986;" 
d="M574 -77h-124q-18 0 -32 12.5t-16 30.5l-12 76q-18 6 -35.5 13t-33.5 16l-64 -45q-6 -5 -13.5 -8t-15.5 -3q-10 0 -19 4t-15 10l-88 88q-13 13 -14 31.5t11 32.5l45 63q-9 16 -16 33.5t-13 35.5l-77 13q-18 2 -30 15.5t-12 31.5v124q0 19 12.5 32.5t30.5 15.5l76 12
q6 18 13 35.5t16 34.5l-46 63q-11 14 -10 32t14 31l88 88q12 13 31 14t33 -11l63 -45q16 9 33.5 16.5t35.5 12.5l13 77q1 18 15 30t32 12h124q18 0 32 -12t16 -31l12 -76q18 -5 35.5 -12.5t33.5 -16.5l64 46q6 5 13.5 7.5t15.5 2.5q10 0 18.5 -3.5t15.5 -10.5l88 -88
q13 -13 14 -31t-11 -33l-45 -62q9 -17 16 -34.5t13 -35.5l77 -12q18 -2 30 -15.5t12 -32.5v-124q0 -18 -12.5 -31.5t-30.5 -15.5l-76 -13q-6 -18 -13 -35.5t-16 -33.5l46 -64q11 -13 10 -31.5t-14 -31.5l-88 -88q-12 -12 -31 -13t-33 10l-63 45q-16 -9 -33.5 -16t-35.5 -13
l-13 -77q-1 -17 -15 -29.5t-32 -12.5zM319 108q3 0 5 -0.5t4 -1.5q19 -11 39.5 -19.5t41.5 -14.5q5 -2 8.5 -5.5t3.5 -8.5l15 -87q1 -6 5 -10t9 -4h124q5 0 9 3.5t5 9.5l15 88q0 5 3.5 8.5t8.5 5.5q21 6 41.5 14.5t39.5 19.5q5 2 9.5 2t8.5 -3l73 -52q5 -4 10.5 -3.5
t8.5 3.5l88 88q4 4 4 9t-3 10l-53 73q-2 4 -2.5 9t1.5 9q11 19 19.5 39.5t14.5 42.5q2 4 5.5 7.5t8.5 4.5l87 14q7 1 10.5 5t3.5 9v124q0 5 -3.5 9t-8.5 5l-89 15q-5 1 -8.5 4t-5.5 8q-6 21 -14.5 41.5t-18.5 39.5q-3 5 -2.5 10t3.5 9l51 72q4 5 4 10.5t-4 8.5l-88 88
q-3 4 -8.5 4t-9.5 -3l-74 -52q-4 -3 -8.5 -3.5t-9.5 2.5q-19 10 -39.5 18.5t-41.5 15.5q-5 1 -8.5 4.5t-3.5 8.5l-15 88q-1 6 -5 9.5t-9 3.5h-124q-5 0 -9 -3.5t-5 -8.5l-15 -89q0 -5 -3.5 -8.5t-8.5 -4.5q-21 -6 -41.5 -14.5t-39.5 -19.5q-5 -3 -9.5 -2.5t-8.5 3.5l-73 51
q-5 5 -10.5 4.5t-8.5 -4.5l-88 -87q-4 -4 -4 -9.5t3 -9.5l52 -73q3 -4 3.5 -9t-2.5 -10q-10 -19 -18.5 -39.5t-14.5 -41.5q-2 -5 -5.5 -8t-8.5 -4l-87 -15q-7 0 -10.5 -4t-3.5 -10v-124q0 -5 3.5 -9t8.5 -5l89 -14q5 -1 8.5 -4.5t5.5 -7.5q6 -22 14.5 -42.5t18.5 -39.5
q3 -4 2.5 -9t-3.5 -9l-51 -72q-4 -5 -4 -10.5t4 -9.5l88 -88q3 -3 8.5 -3.5t9.5 2.5l74 53q2 1 4.5 2t4.5 1zM512 233q-42 0 -79 16t-64.5 43.5t-43.5 63.5q-16 37 -16 79t16 79t43.5 64.5t64.5 43.5t79 16t79 -16t64.5 -43.5t43.5 -64.5t16 -79t-16 -79
q-16 -36 -43.5 -63.5t-64.5 -43.5t-79 -16zM512 604q-70 0 -119.5 -49.5t-49.5 -119.5t49.5 -119t119.5 -49t119.5 49t49.5 119t-49.5 119.5t-119.5 49.5z" />
    <glyph glyph-name="uniE987" unicode="&#xf987;" 
d="M806 882h-588q-8 0 -13 -5t-5 -13v-858q0 -7 5 -12.5t13 -5.5h588q8 0 13 5.5t5 12.5v858q0 8 -5 13t-13 5zM788 196h-17q-7 0 -12.5 -5.5t-5.5 -12.5q0 -8 5.5 -13t12.5 -5h17v-136h-552v136h33v-3q0 -20 14.5 -34.5t34.5 -14.5q21 0 35.5 14.5t14.5 34.5v3h30v-3
q0 -20 14.5 -34.5t34.5 -14.5q21 0 35.5 14.5t14.5 34.5v3h150q8 0 13 5t5 13q0 7 -5 12.5t-13 5.5h-150v2q0 21 -14.5 35.5t-35.5 14.5q-20 0 -34.5 -14.5t-14.5 -35.5v-2h-30v2q0 21 -14.5 35.5t-35.5 14.5q-20 0 -34.5 -14.5t-14.5 -35.5v-2h-33v135h33v-2
q0 -20 14.5 -34.5t34.5 -14.5q21 0 35.5 14.5t14.5 34.5v2h30v-2q0 -20 14.5 -34.5t34.5 -14.5q21 0 35.5 14.5t14.5 34.5v2h30v-2q0 -20 14.5 -34.5t35.5 -14.5q20 0 34.5 14.5t14.5 34.5v2h30v-2q0 -20 14.5 -34.5t35.5 -14.5q20 0 34.5 14.5t14.5 34.5v2h33v-135z
M305 198q0 6 4 10t9 4q6 0 9.5 -4t3.5 -10v-41q0 -5 -3.5 -9t-9.5 -4q-5 0 -9 4t-4 9v41zM434 157v41q0 6 4 10t9 4q6 0 10 -4t4 -10v-41q0 -5 -4 -9t-10 -4q-5 0 -9 4t-4 9zM305 329v41q0 5 4 9t9 4q6 0 9.5 -4t3.5 -9v-41q0 -6 -3.5 -9.5t-9.5 -3.5q-5 0 -9 3.5t-4 9.5z
M434 329v41q0 5 4 9t9 4q6 0 10 -4t4 -9v-41q0 -6 -4 -9.5t-10 -3.5q-5 0 -9 3.5t-4 9.5zM563 329v41q0 5 4 9t10 4q5 0 9 -4t4 -9v-41q0 -6 -4 -9.5t-9 -3.5q-6 0 -10 3.5t-4 9.5zM693 329v41q0 5 3.5 9t9.5 4q5 0 9 -4t4 -9v-41q0 -6 -4 -9.5t-9 -3.5q-6 0 -9.5 3.5
t-3.5 9.5zM788 367h-33v3q0 20 -14.5 34.5t-34.5 14.5q-21 0 -35.5 -14.5t-14.5 -34.5v-3h-30v3q0 20 -14.5 34.5t-34.5 14.5q-21 0 -35.5 -14.5t-14.5 -34.5v-3h-30v3q0 20 -14.5 34.5t-35.5 14.5q-20 0 -34.5 -14.5t-14.5 -34.5v-3h-30v3q0 20 -14.5 34.5t-35.5 14.5
q-20 0 -34.5 -14.5t-14.5 -34.5v-3h-33v136h162v-2q0 -21 14.5 -35.5t34.5 -14.5q21 0 35.5 14.5t14.5 35.5v2h30v-2q0 -21 14.5 -35.5t35.5 -14.5q20 0 34.5 14.5t14.5 35.5v2h30v-2q0 -21 14.5 -35.5t35.5 -14.5q20 0 34.5 14.5t14.5 35.5v2h33v-136zM434 501v40q0 6 4 10
t9 4q6 0 10 -4t4 -10v-40q0 -6 -4 -10t-10 -4q-5 0 -9 4t-4 10zM563 501v40q0 6 4 10t10 4q5 0 9 -4t4 -10v-40q0 -6 -4 -10t-9 -4q-6 0 -10 4t-4 10zM693 501v40q0 6 3.5 10t9.5 4q5 0 9 -4t4 -10v-40q0 -6 -4 -10t-9 -4q-6 0 -9.5 4t-3.5 10zM788 539h-33v2
q0 21 -14.5 35.5t-34.5 14.5q-21 0 -35.5 -14.5t-14.5 -35.5v-2h-30v2q0 21 -14.5 35.5t-34.5 14.5q-21 0 -35.5 -14.5t-14.5 -35.5v-2h-30v2q0 21 -14.5 35.5t-35.5 14.5q-20 0 -34.5 -14.5t-14.5 -35.5v-2h-162v135h291v-2q0 -20 14.5 -34.5t35.5 -14.5q20 0 34.5 14.5
t14.5 34.5v2h30v-2q0 -20 14.5 -34.5t35.5 -14.5q20 0 34.5 14.5t14.5 34.5v2h33v-135zM563 672v41q0 5 4 9t10 4q5 0 9 -4t4 -9v-41q0 -5 -4 -9t-9 -4q-6 0 -10 4t-4 9zM693 672v41q0 5 3.5 9t9.5 4q5 0 9 -4t4 -9v-41q0 -5 -4 -9t-9 -4q-6 0 -9.5 4t-3.5 9zM788 711h-33v2
q0 20 -14.5 34.5t-34.5 14.5q-21 0 -35.5 -14.5t-14.5 -34.5v-2h-30v2q0 20 -14.5 34.5t-34.5 14.5q-21 0 -35.5 -14.5t-14.5 -34.5v-2h-291v135h552v-135zM806 947h-588q-35 0 -59 -24.5t-24 -58.5v-858q0 -34 24 -58.5t59 -24.5h588q35 0 59 24.5t24 58.5v858
q0 34 -24 58.5t-59 24.5zM806 -41h-588q-20 0 -33.5 14t-13.5 33v858q0 20 13.5 33.5t33.5 13.5h588q20 0 33.5 -13.5t13.5 -33.5v-858q0 -19 -13.5 -33t-33.5 -14zM721 193q-10 6 -20 -0.5t-8 -18.5q2 -5 6 -9t10 -5t11.5 2t7.5 9t0.5 12t-7.5 10z" />
    <glyph glyph-name="uniE988" unicode="&#xf988;" 
d="M960 925v-159h-289q-8 43 -39.5 70.5t-73.5 27.5q-43 0 -74.5 -28t-38.5 -70h-87q-7 43 -38.5 70.5t-74.5 27.5t-74 -28t-39 -70h-68v159h-42v-980h42v159h68q8 -42 40 -70t73 -28q43 0 74.5 28.5t38.5 69.5h56q7 -42 39 -70t74 -28q41 0 72.5 28.5t39.5 69.5h322v-159
h41v980h-42zM558 818q31 0 52 -21.5t21 -54.5q0 -31 -21.5 -53.5t-51.5 -22.5t-51.5 22.5t-21.5 53.5t21.5 53.5t51.5 22.5zM245 818q32 0 52.5 -21.5t20.5 -54.5q0 -31 -21.5 -53.5t-51.5 -22.5t-51.5 22.5t-21.5 53.5t21.5 53.5t51.5 22.5zM132 723q8 -43 39.5 -70.5
t73.5 -27.5q43 0 74.5 27.5t38.5 70.5h87q8 -43 39.5 -70.5t73.5 -27.5q43 0 74.5 27.5t38.5 70.5h289v-266h-56q-7 42 -39 70t-74 28q-43 0 -74 -28t-38 -70h-133q-7 42 -38.5 70t-74.5 28t-74.5 -28t-38.5 -70h-256v266h68zM864 435q0 -31 -21.5 -53.5t-51.5 -22.5
q-29 0 -51 22.5t-22 53.5t22 53.5t51 22.5q32 0 52.5 -22.5t20.5 -53.5zM506 435q0 -31 -21.5 -53.5t-51.5 -22.5t-51.5 22.5t-21.5 53.5t21.5 53.5t51.5 22.5q29 0 51 -22.5t22 -53.5zM245 50q-29 0 -51 22.5t-22 53.5t21.5 53.5t51.5 22.5q32 0 52.5 -22.5t20.5 -53.5
t-21.5 -53.5t-51.5 -22.5zM527 50q-30 0 -51.5 22.5t-21.5 53.5t21.5 53.5t51.5 22.5q29 0 51 -22.5t22 -53.5t-22 -53.5t-51 -22.5zM639 148q-7 42 -38 70t-74 28t-74.5 -28.5t-38.5 -69.5h-56q-7 42 -38.5 70t-74.5 28t-74 -28.5t-39 -69.5h-68v265h256q7 -42 39 -70
t74 -28q41 0 73 28t40 70h133q7 -42 39 -70t73 -28q42 0 74 28t39 70h56v-265h-321z" />
    <glyph glyph-name="uniE989" unicode="&#xf989;" 
d="M615 448h-106q-50 0 -80 -31q-29 -31 -43 -69t-15 -72q-2 -33 3 -38q25 -23 75.5 -38t113.5 -15t111.5 14t71.5 36q5 4 4 38t-14.5 72.5t-41.5 70.5q-29 32 -79 32zM717 264q-19 -17 -61 -27t-93 -10t-93 10t-61 27q-1 5 16 74.5t86 69.5h106q69 0 85.5 -69.5t14.5 -74.5
zM561 460q47 0 80.5 33t31.5 80q0 46 -32.5 79t-79.5 33t-79.5 -33t-32.5 -79q0 -47 32.5 -80t79.5 -33zM561 643q31 0 52 -20.5t21 -49.5q0 -30 -21.5 -50.5t-51.5 -20.5t-51.5 20.5t-21.5 50.5q0 29 21.5 49.5t51.5 20.5zM884 925h-660q-38 0 -64 -26t-26 -64v-183h-83
v-42h83v-154h-83v-41h83v-154h-83v-42h83v-183q0 -38 26 -64t64 -26h658q37 0 63.5 26t27.5 64v799q0 37 -26 63.5t-63 26.5zM932 35q0 -18 -14 -32.5t-34 -14.5h-660q-19 0 -33.5 13.5t-14.5 33.5v184h79v41h-79v154h79v42h-79v154h79v41h-79v184q0 19 13.5 33.5t34.5 14.5
h660q18 0 32.5 -14t14.5 -34z" />
    <glyph glyph-name="uniE98A" unicode="&#xf98a;" 
d="M1002 569h-980q-9 0 -15.5 -6.5t-6.5 -15.5q0 -10 6.5 -16.5t15.5 -6.5h980q9 0 15.5 6.5t6.5 16.5q0 9 -6.5 15.5t-15.5 6.5zM963 568q-9 2 -17 -2.5t-10 -13.5l-116 -424q-6 -21 -24 -35t-40 -14h-488q-22 0 -40 14t-24 35l-116 424q-2 9 -10 13.5t-17 2.5t-13.5 -10
t-2.5 -17l116 -424q10 -37 40 -59.5t67 -22.5h488q37 0 67 22.5t40 59.5l116 424q2 9 -2.5 17t-13.5 10zM480 832q-8 5 -17 3.5t-14 -9.5l-178 -267q-5 -8 -3.5 -17t9.5 -14q3 -2 6 -3t6 -1q6 0 11 2.5t8 7.5l178 267q5 8 3 17t-9 14zM753 559l-178 267q-5 8 -14 9.5
t-17 -3.5t-9.5 -14t3.5 -17l178 -267q3 -5 8 -7.5t11 -2.5q3 0 6 1t6 3q8 5 9.5 14t-3.5 17zM512 480q-9 0 -15.5 -6.5t-6.5 -16.5v-311q0 -9 6.5 -15.5t15.5 -6.5t15.5 6.5t6.5 15.5v311q0 10 -6.5 16.5t-15.5 6.5zM671 480q-9 1 -16.5 -4.5t-8.5 -14.5l-45 -312
q-1 -9 4.5 -16.5t14.5 -8.5h3q9 0 15 5t7 14l45 311q1 9 -4.5 16.5t-14.5 9.5zM423 149l-45 312q-1 9 -8.5 14.5t-16.5 4.5q-9 -2 -14.5 -9.5t-4.5 -16.5l45 -311q1 -9 7.5 -14t14.5 -5h3q9 1 14.5 8.5t4.5 16.5zM830 479q-9 2 -17 -2.5t-11 -12.5l-89 -312q-2 -9 2.5 -17
t12.5 -11h7q7 0 13 4t8 12l89 311q3 9 -1.5 17t-13.5 11zM311 152l-89 312q-3 8 -11 12.5t-17 2.5q-9 -3 -13.5 -11t-1.5 -17l89 -311q2 -8 8 -12t13 -4h7q8 3 12.5 11t2.5 17z" />
    <glyph glyph-name="uniE98B" unicode="&#xf98b;" 
d="M947 153l-166 72q-3 1 -6.5 4.5t-5.5 8.5h141l55 12q10 4 17.5 12.5t10.5 19.5t1.5 22.5t-8.5 20.5q-12 17 -30 47q-18 29 -35 67t-30 81q-13 44 -14 89q0 1 -4 33t-24 71t-62 71t-118 33q-22 0 -42.5 -4t-39.5 -11q-4 11 -10 21.5t-15 20.5q-27 30 -69.5 45.5
t-99.5 15.5q-58 0 -100.5 -15.5t-69.5 -45.5q-30 -34 -33 -69t-2 -42v-91q-8 -9 -12.5 -20.5t-4.5 -24.5v-68q0 -15 6.5 -29t18.5 -24q12 -46 31.5 -79t28.5 -44v-57q0 -12 -6.5 -23t-17.5 -17l-152 -83q-37 -20 -58.5 -56.5t-21.5 -78.5v-72h1024v63q0 40 -20.5 73
t-56.5 51zM751 0h-717v38q0 33 17 61.5t46 43.5l152 83q19 11 30 29.5t11 40.5v69l-4 4q0 1 -23 35t-35 86l-2 7l-5 3q-8 5 -12 12.5t-4 16.5v68q0 8 3 14.5t8 11.5l6 5v108l1 28l26 58q21 24 57 36t87 12q50 0 85.5 -12t57.5 -36q10 -12 16 -24.5t8 -24.5l1 -1v-2l1 -2v-7
l1 -1v-7q0 -1 0.5 -2.5t0.5 -2.5v-10l-1 -2v-108l6 -6q5 -5 8 -11t3 -14v-68q0 -11 -6.5 -20t-17.5 -12l-9 -3l-2 -8q-9 -27 -21 -51.5t-28 -46.5q-3 -5 -7 -10t-7 -8l-4 -5v-77l1 -6v-2l1 -1q0 -2 0.5 -5t1.5 -6l1 -1q1 -3 2 -5.5t3 -6.5l4 -6l5 -6l4 -5l10 -8l11 -6
l163 -82q30 -15 48 -44t18 -63v-35zM990 0h-205v35q0 44 -23 81t-62 57l-117 58q2 5 2.5 10.5t-1.5 11.5q-3 9 -11 14t-17 5h-38q-1 1 -1 2.5t-1 2.5t-1.5 2.5t-0.5 3.5q-1 2 -1.5 5t-0.5 6v58l12 16q16 23 28.5 47.5t22.5 51.5q18 9 28.5 25.5t10.5 36.5v68q0 13 -4 24.5
t-13 20.5v91q1 3 1 13t-2 23q16 7 34.5 10.5t38.5 3.5q63 -1 98 -27t52 -58t21 -60q3 -27 3 -30q1 -48 15 -95q13 -46 31 -86.5t37 -71.5t32 -49q2 -3 2.5 -7t-0.5 -7q0 -3 -2 -6t-7 -5q-21 -9 -45 -9h-142q-8 0 -15 -4t-12 -11q-4 -7 -4.5 -15t3.5 -15q4 -8 11.5 -17.5
t18.5 -15.5l167 -72q26 -13 41.5 -38t15.5 -55v-29z" />
    <glyph glyph-name="uniE98C" unicode="&#xf98c;" 
d="M798 236q-12 8 -21 12t-11 5l-92 38l-66 44h-2v28q37 19 62 53t31 76q30 3 50.5 25t20.5 53q0 15 -5.5 28t-14.5 24v99q0 47 -18 88t-48.5 72t-72.5 48q-41 18 -88 18h-17q-47 0 -88 -18q-42 -17 -72.5 -48t-48.5 -72t-18 -88v-98q-10 -11 -15.5 -24.5t-5.5 -28.5
q0 -31 20.5 -53t50.5 -25q6 -42 31 -76t62 -53v-26l-68 -45h-3l-93 -39q-4 -1 -21.5 -10t-37.5 -28t-39.5 -54t-19.5 -91v-131q0 -6 4.5 -11t11.5 -5h192q7 0 11.5 5t4.5 11q0 7 -4.5 12t-11.5 5h-50v120q0 7 -4.5 12t-11.5 5t-11.5 -5t-4.5 -12v-120h-94v114q0 88 47 119.5
t50 32.5l1 1l78 32l83 -299h-32q-7 0 -11.5 -5t-4.5 -12q0 -6 4.5 -11t11.5 -5h469q7 0 11.5 5t4.5 11v131q0 72 -31 111.5t-55 54.5zM647 270l-49 -101l-60 45l64 66q2 3 3.5 6.5t0.5 7.5v3zM548 165l-12 -34h-44l-14 35l35 26zM454 293v58q11 -3 21.5 -4t21.5 -1h34
q11 0 21.5 1t21.5 4v-53l-61 -63zM738 570q0 -17 -11 -29.5t-26 -15.5v89q15 -3 26 -15.5t11 -28.5zM327 525q-15 3 -25.5 15.5t-10.5 29.5q0 16 10.5 28.5t25.5 15.5v-89zM344 663l-2 -1h-4l-2 -2h-2l-4 -4v-2l-2 -2v-4l-1 -1q-4 -1 -7.5 -2t-7.5 -2v78q0 40 15 75
t41.5 61.5t61.5 41.5q36 16 76 16h17q40 0 76 -16q35 -15 61.5 -41.5t41.5 -61.5t15 -75v-78l-16 4l-1 1v4l-2 2v2l-4 4h-2l-2 2h-2q-48 11 -65.5 53t-17.5 43q-1 4 -4.5 7.5t-8.5 4.5q-4 1 -8.5 -1t-7.5 -6q-27 -37 -67 -57q-39 -21 -75.5 -30.5t-62.5 -11.5q-26 -1 -27 -1
zM360 515v116q31 2 100.5 18.5t122.5 71.5q9 -21 29.5 -48t55.5 -39v-119q0 -56 -40 -96.5t-97 -40.5h-34q-56 0 -96.5 40.5t-40.5 96.5zM422 298v-4l1 -3q-2 -4 -1 -8.5t5 -8.5l62 -60l-62 -45l-49 101zM448 15l-31 114q1 -1 2 -1h2q3 0 5.5 1t4.5 2l20 15l13 -33zM472 -44
l23 143h38l23 -143h-84zM564 113l12 32l19 -14q2 -1 4.5 -2t4.5 -1h2l2 1q1 0 2 0.5t2 0.5l-32 -116zM852 -44h-94v120q0 7 -4.5 12t-11.5 5t-11.5 -5t-4.5 -12v-120h-129l83 297l74 -30q0 -1 1 -1l7 -3l18 -10q25 -16 48.5 -48.5t23.5 -90.5v-114zM533 501q7 0 11.5 4.5
t4.5 11.5t-4.5 11.5t-11.5 4.5h-12v38q0 6 -4.5 11t-11.5 5t-11.5 -5t-4.5 -11v-54q0 -7 4.5 -11.5t11.5 -4.5h28z" />
    <glyph glyph-name="uniE98D" unicode="&#xf98d;" 
d="M878 553q0 76 -29 143t-78.5 116.5t-116.5 78.5q-66 29 -142 29t-142 -29q-67 -29 -116.5 -78.5t-78.5 -116.5q-29 -66 -29 -143q-61 -3 -103.5 -48t-42.5 -106v-19q0 -64 45.5 -109.5t109.5 -45.5h9l65 -103q34 -55 89 -86t120 -31h13q6 -23 25.5 -38.5t44.5 -15.5
q30 0 51.5 21.5t21.5 51.5t-21.5 51.5t-51.5 21.5q-25 0 -44.5 -16t-25.5 -39h-13q-55 0 -102.5 26.5t-75.5 73.5l-53 83h12q16 0 26.5 10.5t10.5 25.5v256q0 16 -10.5 26.5t-26.5 10.5h-36q0 68 26 128t70.5 105t104.5 70q60 26 128 26t128 -26q60 -25 104.5 -70t70.5 -105
t26 -128h-36q-16 0 -26.5 -10.5t-10.5 -26.5v-256q0 -15 10.5 -25.5t26.5 -10.5h64q64 0 109.5 45.5t45.5 109.5v19q0 61 -42.5 106t-103.5 48zM521 60q15 0 26 -10.5t11 -25.5t-11 -26t-26 -11t-25.5 11t-10.5 26t10.5 25.5t25.5 10.5zM219 517v-256h-64q-49 0 -83.5 35
t-34.5 84v19q0 49 34.5 83.5t83.5 34.5h64zM987 380q0 -49 -34.5 -84t-83.5 -35h-64v256h64q49 0 83.5 -34.5t34.5 -83.5v-19zM664 782q-2 0 -3.5 1.5t-4.5 2.5q-2 2 -3.5 3t-3.5 2q-6 4 -13.5 2t-11.5 -9q-3 -6 -1.5 -13t8.5 -11q1 -1 3 -2t4 -3q2 -1 4 -2.5t4 -1.5
q2 -2 4.5 -2.5t5.5 -0.5q4 0 8 2t7 7q4 6 2 13.5t-9 11.5zM512 828q-58 0 -110.5 -24t-90.5 -68q-5 -5 -4.5 -13t6.5 -13q2 -2 5 -3t7 -1t7.5 1.5t5.5 4.5q33 38 78.5 59t95.5 21q12 0 24.5 -1.5t24.5 -4.5q8 -1 14 3t8 11t-2.5 13.5t-10.5 8.5q-15 3 -29.5 4.5t-28.5 1.5z
" />
    <glyph glyph-name="uniE98E" unicode="&#xf98e;" 
d="M944 544q14 13 19 32t-1 37t-21 30.5t-34 15.5l-224 33q-3 0 -6 2t-4 5l-100 203q-9 17 -25.5 27.5t-35.5 10.5t-35.5 -10.5t-25.5 -27.5l-100 -203q-1 -3 -4 -5t-6 -2l-224 -33q-19 -3 -33.5 -15.5t-20.5 -30.5t-1.5 -37t18.5 -32l162 -158q2 -3 3 -6t1 -6l-39 -223
q-3 -20 4 -37.5t23 -28.5q16 -12 35 -13.5t36 7.5l201 106q3 1 6 1t6 -1l201 -106q7 -3 15 -5t16 -2q11 0 21 3t19 10q16 11 23 28.5t4 37.5l-39 223q0 3 1 6t3 6zM725 365l38 -224q1 -5 -1 -8.5t-4 -4.5q-1 -1 -5 -2t-9 1l-201 106q-7 3 -15 5t-16 2t-16 -2t-15 -5
l-201 -106q-5 -2 -9 -1t-5 2q-2 1 -4 4.5t-1 8.5l38 224q3 16 -2.5 32t-17.5 27l-162 158q-4 4 -4 8.5t1 5.5q0 2 2.5 5.5t8.5 3.5l224 33q16 2 29.5 12t21.5 25l100 203q2 5 6 6.5t6 1.5t6 -1.5t6 -6.5l100 -203q8 -15 21.5 -25t29.5 -12l224 -33q6 0 8.5 -3.5t2.5 -5.5
q1 -1 1 -5.5t-4 -8.5l-162 -158q-12 -11 -17.5 -27t-2.5 -32zM828 902q-9 7 -20.5 5t-17.5 -11l-29 -39q-6 -10 -4.5 -21t10.5 -17q4 -3 8 -4t8 -1q6 0 12 2.5t10 8.5l29 39q6 9 4.5 20t-10.5 18zM263 857l-29 39q-7 9 -18 11t-20 -5q-9 -6 -10.5 -17.5t4.5 -20.5l29 -39
q4 -6 10 -8.5t12 -2.5q4 0 8 1t8 4q9 7 10.5 18t-4.5 20zM99 334q-3 10 -13 15t-21 2l-46 -15q-11 -4 -16 -14t-2 -20q3 -9 10 -14t16 -5q2 0 4 0.5t4 0.5l47 16q10 3 15.5 13t1.5 21zM512 34q-11 0 -19 -8t-8 -19v-49q0 -11 8 -19t19 -8t19 8t8 19v49q0 11 -8 19t-19 8z
M1005 336l-46 15q-11 3 -21 -2t-13 -15q-4 -11 1.5 -21t15.5 -14l47 -15q2 0 4 -0.5t4 -0.5q9 0 16 5t10 14q3 10 -2 20t-16 14z" />
    <glyph glyph-name="uniE98F" unicode="&#xf98f;" 
d="M973 879h-120v51q0 7 -5 12t-12 5h-119q-7 0 -12 -5t-5 -12v-51h-376v51q0 7 -5 12t-12 5h-119q-7 0 -12 -5t-5 -12v-51h-120q-7 0 -12 -5t-5 -12v-922q0 -7 5 -12t12 -5h922q7 0 12 5t5 12v922q0 7 -5 12t-12 5zM734 913h85v-102h-85v102zM205 913h85v-102h-85v102z
M68 845h103v-51q0 -7 5 -12t12 -5h119q7 0 12 5t5 12v51h376v-51q0 -7 5 -12t12 -5h119q7 0 12 5t5 12v51h103v-154h-888v154zM68 -43v700h888v-700h-888zM188 555v-495h648v495h-648zM529 521h120v-120h-120v120zM649 247h-120v120h120v-120zM375 367h120v-120h-120v120z
M375 521h120v-120h-120v120zM222 521h119v-120h-119v120zM222 367h119v-120h-119v120zM341 94h-119v119h119v-119zM495 94h-120v119h120v-119zM649 94h-120v119h120v-119zM802 94h-119v119h119v-119zM802 247h-119v120h119v-120zM802 521v-120h-119v120h119z" />
    <glyph glyph-name="uniE990" unicode="&#xf990;" 
d="M1024 834v5q-1 0 -1 1v2l-1 1q0 1 -1 1l-4 4q0 1 -2 1l-2 2h-9q-1 0 -2 -1l-992 -384q-4 -2 -7 -6t-3 -9t3 -9t7 -6l296 -113l95 -293l1 -2v-2l4 -4h2l2 -2h2l1 -1h6q0 1 1 1h2l2 1l5 5l117 158q4 5 3 11.5t-7 10.5q-5 4 -11.5 3t-10.5 -6l-51 -69l41 110l382 -145
q1 0 2.5 -0.5t2.5 -0.5q3 0 5 0.5t4 1.5q3 2 5 5t2 7zM899 776l-457 -332q-5 -4 -6 -10.5t3 -11.5q2 -4 5.5 -5.5t7.5 -1.5q2 0 4.5 1t4.5 2l436 317l-408 -459q-1 -1 -2 -2.5t-2 -3.5l-68 -186l-83 256q-1 3 -3.5 5.5t-5.5 4.5l-265 101zM885 136l-357 136l456 512z
M371 357q2 0 4.5 0.5t4.5 2.5l32 22q5 4 6 10.5t-3 12.5q-4 5 -10.5 6t-11.5 -3l-31 -22q-6 -4 -7 -10.5t3 -12.5q2 -3 5.5 -4.5t7.5 -1.5z" />
    <glyph glyph-name="uniE991" unicode="&#xf991;" 
d="M515 723q-54 0 -92.5 -38.5t-38.5 -92.5t38.5 -92.5t92.5 -38.5t92.5 38.5t38.5 92.5t-38.5 92.5t-92.5 38.5zM515 498q-38 0 -65.5 27.5t-27.5 66.5t27.5 66t65.5 27q39 0 66.5 -27t27.5 -66t-27.5 -66.5t-66.5 -27.5zM766 842q-51 51 -116.5 78t-137.5 27t-137.5 -27
t-116.5 -78q-47 -47 -73 -111q-26 -65 -30.5 -134.5t12.5 -136.5q18 -68 58 -122l287 -415l287 415q40 53 58 121q17 68 12.5 137.5t-30.5 134.5q-26 64 -73 111zM769 359l-257 -370l-257 371q-36 49 -52 110t-12 124t28 121q23 58 66 101q45 45 104 69.5t123 24.5
t123 -24.5t104 -69.5q43 -43 66 -101q24 -58 28 -121t-12 -124q-16 -62 -52 -111z" />
    <glyph glyph-name="uniE992" unicode="&#xf992;" 
d="M823 -77q-32 0 -70 8t-81 24q-46 18 -94 44q-49 25 -97 58.5t-96 72.5q-47 40 -93 85q-45 46 -85 94q-40 47 -73 95.5t-59 96.5q-25 48 -43 95q-32 84 -32 150t32 97q4 5 9 10t9 10q29 30 63 58t78 26q30 -1 59 -20t59 -56q88 -109 68.5 -160.5t-65.5 -96.5l-11 -11
q-7 -7 4 -53.5t143 -178.5q43 -43 79.5 -74t65.5 -50q19 -12 46 -24t41 2l11 11q45 45 96.5 64.5t160.5 -68.5q37 -30 56 -59t20 -59q2 -44 -26 -77.5t-59 -62.5q-5 -5 -9.5 -10t-9.5 -9q-16 -16 -40.5 -24t-56.5 -8zM187 913q-31 0 -59 -24t-53 -50q-5 -5 -9.5 -10
t-9.5 -10q-24 -24 -21.5 -81.5t29.5 -129.5q17 -45 42 -92q25 -46 57 -93t71 -93t83 -90t90 -83t93 -71t93 -57q47 -25 92 -42q72 -27 129.5 -29t81.5 21q4 5 9.5 10t10.5 10q26 25 50.5 53.5t23.5 60.5q-1 21 -17 44.5t-46 47.5q-91 73 -130 61t-82 -55l-11 -11
q-20 -20 -52.5 -15.5t-76.5 33.5q-31 20 -69 52.5t-82 76.5q-110 109 -145.5 177.5t-1.5 103.5l11 10q43 43 55 82t-61 130q-24 30 -47.5 46t-45.5 17h-2z" />
    <glyph glyph-name="uniE993" unicode="&#xf993;" 
d="M1001 808h-978q-9 0 -16 -7t-7 -17v-698q0 -10 7 -16.5t16 -6.5h978q9 0 16 6.5t7 16.5v698q0 10 -7 17t-16 7zM977 166l-288 288l-33 -33l312 -312h-912l312 312l-33 33l-288 -288v595h930v-595zM930 761l-418 -418l-418 418h-47v-19l449 -449q6 -7 16 -7t16 7l449 449
v19h-47z" />
    <glyph glyph-name="uniE994" unicode="&#xf994;" 
d="M1011 688q-14 15 -34.5 15.5t-34.5 -13.5l-430 -407l-430 407q-14 14 -34.5 13.5t-34.5 -15.5t-13 -35t15 -34l463 -439q7 -6 16 -9.5t18 -3.5t17.5 3.5t16.5 9.5l463 439q14 14 15 34t-13 35z" />
    <glyph glyph-name="uniE995" unicode="&#xf995;" 
d="M1009 251l-463 439q-15 13 -34 13t-34 -13l-463 -439q-14 -14 -15 -34t13 -35q14 -14 34.5 -15t34.5 13l430 407l430 -407q7 -6 15.5 -9.5t17.5 -3.5q10 0 19 4t17 11q14 15 13 35t-15 34z" />
    <glyph glyph-name="uniE996" unicode="&#xf996;" 
d="M690 797q-11 11 -26 11t-26 -11q-11 -10 -11 -25t11 -26l262 -262h-864q-15 0 -25.5 -10.5t-10.5 -25.5t10.5 -25.5t25.5 -10.5h864l-262 -262q-11 -10 -11 -25.5t11 -25.5q11 -11 26 -11t26 11l323 323q11 11 11 26t-11 26z" />
    <glyph glyph-name="uniE997" unicode="&#xf997;" 
d="M360 435l407 430q14 15 13.5 35t-15.5 34t-35 13.5t-34 -15.5l-439 -463q-13 -14 -13 -33.5t13 -33.5l439 -464q7 -7 16.5 -11t18.5 -4t18 3.5t16 10.5q15 13 15.5 33.5t-13.5 34.5z" />
    <glyph glyph-name="uniE998" unicode="&#xf998;" 
d="M1016 517l-130 86v290q0 7 -5 12t-12 5h-714q-7 0 -12 -5t-5 -12v-290l-130 -86q-4 -3 -6 -6.5t-2 -7.5v-526q0 -7 5 -12t12 -5h990q7 0 12 5t5 12v526q0 4 -2 7.5t-6 6.5zM138 457l-53 29h53v-29zM34 474l390 -207l-390 -258v465zM512 285l439 -291h-878zM600 267
l390 207v-465zM886 486h53l-53 -29v29zM951 519h-65v44zM852 876v-437l-284 -150l-47 31q-4 2 -9 2t-9 -2l-47 -31l-284 150v437h680zM138 519h-65l65 44v-44zM512 464h135q7 0 12 5t5 12t-5 12t-12 5h-135q-49 0 -83.5 34.5t-34.5 83.5v5q0 49 34.5 83.5t83.5 34.5
t83.5 -34.5t34.5 -83.5v-12q0 -11 -7.5 -18.5t-17.5 -7.5q-11 0 -18.5 7.5t-7.5 18.5v23q0 31 -21.5 52.5t-51.5 21.5q-31 0 -52.5 -21.5t-21.5 -52.5q0 -30 21.5 -51.5t52.5 -21.5q14 0 26 5t22 13q8 -12 21.5 -20t29.5 -8q24 0 41.5 17.5t17.5 42.5v12q0 63 -44.5 107.5
t-107.5 44.5t-107.5 -44.5t-44.5 -107.5v-5q0 -63 44.5 -107.5t107.5 -44.5zM506 593q-17 0 -28.5 11.5t-11.5 27.5q0 17 11.5 28.5t28.5 11.5q16 0 27.5 -11.5t11.5 -28.5q0 -16 -11.5 -27.5t-27.5 -11.5z" />
    <glyph glyph-name="uniE999" unicode="&#xf999;" 
d="M895 96q30 34 54 73t40.5 82t25.5 89t9 95q0 51 -10 99q-9 48 -27 92.5t-44 84.5t-58 75q-34 35 -74 64t-85 50t-94 33q-50 12 -102 14h-36q-52 -2 -102 -14q-49 -12 -94 -33t-85 -50t-74 -65q-32 -34 -58 -74t-44 -84.5t-27 -92.5q-10 -48 -10 -99q0 -49 9 -95t25.5 -89
t40.5 -82t54 -74l1 -1q34 -38 75 -68q41 -31 87 -53t97 -35t105 -14l10 -1h16l10 1q54 2 105 14q51 13 97 35t87 53t75 69zM36 418h212q1 -57 12 -111t30 -105q-37 -14 -73 -32t-70 -41q-50 59 -79 132.5t-32 156.5zM157 753q33 -22 68 -39t71 -30q-22 -54 -34.5 -112.5
t-13.5 -118.5h-212q1 43 10 84t24.5 79t37.5 72t49 65zM988 453h-212q-1 60 -13.5 118.5t-34.5 112.5q36 13 71 30t68 39q27 -31 49 -65t37.5 -72t24.5 -79t10 -84zM494 683q-38 1 -75.5 6.5t-73.5 16.5q27 55 64.5 104t84.5 91v-218zM494 648v-195h-211q2 57 13.5 112.5
t33.5 107.5q40 -11 81 -17.5t83 -7.5zM530 648q42 1 83 7.5t81 17.5q22 -52 33.5 -107.5t13.5 -112.5h-211v195zM530 683v218q47 -42 84.5 -91t64.5 -104q-36 -11 -73.5 -16.5t-75.5 -6.5zM713 716q-25 54 -60 102t-79 90q78 -10 146 -44t122 -85q-30 -20 -62.5 -35.5
t-66.5 -27.5zM311 716q-34 12 -66.5 27.5t-62.5 35.5q54 51 122 85t146 44q-44 -42 -79 -90t-60 -102zM283 418h211v-178q-43 -1 -86 -7.5t-84 -19.5q-19 49 -29.5 100t-11.5 105zM494 205v-235q-50 44 -89.5 97.5t-67.5 112.5q38 11 77.5 17.5t79.5 7.5zM530 -30v235
q40 -1 79.5 -7.5t77.5 -17.5q-28 -59 -67.5 -112.5t-89.5 -97.5zM530 240v178h211q-1 -54 -11.5 -105t-29.5 -100q-41 13 -84 19.5t-86 7.5zM776 418h212q-3 -83 -32 -156.5t-79 -132.5q-34 23 -70 41t-73 32q19 51 30 105t12 111zM171 102q31 21 64.5 38t68.5 29
q26 -58 62.5 -110t83.5 -96q-41 5 -79 17q-39 12 -74 30t-67 41t-59 51zM574 -37q47 44 83.5 96t62.5 110q35 -12 68.5 -29t64.5 -38q-27 -28 -59 -51t-67 -41t-74 -30q-38 -12 -79 -17z" />
    <glyph glyph-name="uniE99A" unicode="&#xf99a;" 
d="M238 473v-82h206v-444h-444v526q0 63 9 117q9 55 27 101.5t45 83.5q27 38 62 67q49 41 111.5 61t135.5 20v-237q-40 0 -96 -26.5t-56 -186.5zM971 686v237q-74 0 -136 -20t-111 -61q-36 -29 -63 -67q-27 -37 -45 -83.5t-27 -101.5q-9 -54 -9 -117v-526h444v444h-206v82
q0 160 56.5 186.5t96.5 26.5z" />
    <glyph glyph-name="uniE99B" unicode="&#xf99b;" 
d="M1014 459l-97 97q-87 87 -192 130t-213 43t-213 -43q-104 -43 -190 -130l-99 -97q-5 -5 -7.5 -11t-2.5 -13t2.5 -13t7.5 -11l97 -97q44 -43 92 -76q48 -32 99.5 -53.5t105.5 -32.5q54 -10 108 -10t108 10q54 11 105.5 32.5t99.5 54.5q48 32 92 75l97 97q5 5 7.5 11
t2.5 13t-2.5 13t-7.5 11zM869 361q-76 -76 -169 -114q-92 -37 -188 -37t-188 37q-93 38 -169 114l-74 74l75 74q76 76 168 114q93 38 188.5 38t187.5 -38q93 -38 169 -114l74 -74zM512 636q-41 0 -78 -16t-64 -43t-43 -64q-16 -36 -16 -78q0 -41 16 -78q16 -36 43 -63.5
t64 -43.5q37 -15 78 -15t78 15q36 16 63.5 43.5t43.5 63.5q16 37 16 78q0 42 -16 78q-16 37 -43.5 64t-63.5 43q-37 16 -78 16zM512 302q-55 0 -94 39t-39 94t39 94t94 39t94 -39t39 -94t-39 -94t-94 -39zM512 527v-67q10 0 17.5 -7.5t7.5 -17.5t-7.5 -17.5t-17.5 -7.5
t-17.5 7.5t-7.5 17.5h-67q0 -38 27 -65t65 -27t65 27t27 65t-27 65t-65 27z" />
    <glyph glyph-name="uniE99C" unicode="&#xf99c;" 
d="M1006 457q-1 2 -37 41.5t-99 86.5q-43 31 -87 55q-45 24 -90 40t-90 24q-46 8 -91 8t-91 -8q-45 -8 -90 -24t-90 -40q-44 -24 -87 -55q-63 -47 -99 -86.5t-37 -41.5l-18 -22l18 -22q1 -2 37 -41.5t99 -85.5q43 -32 87 -56q45 -23 90 -39.5t90 -24.5q46 -8 91 -8t91 8
q45 8 90 24.5t90 39.5q44 24 87 56q63 46 99 85.5t37 41.5l18 22zM512 241q-40 0 -76 15q-35 16 -61.5 42t-41.5 62q-15 35 -15 75q0 13 1.5 25t4.5 24l-44 7q-4 -13 -5.5 -27t-1.5 -29q0 -52 20.5 -97t56.5 -78q-46 17 -84 39t-68 43q-36 27 -62.5 52t-42.5 41
q16 17 42.5 42t62.5 51q30 22 68 44t84 38l29 -33q26 24 60.5 38t72.5 14q40 0 76 -15q35 -15 61.5 -41.5t41.5 -61.5q15 -36 15 -76t-15 -75q-15 -36 -41.5 -62t-61.5 -42q-36 -15 -76 -15zM826 342q-30 -21 -68 -43t-84 -39q36 33 56.5 78t20.5 97t-20.5 97.5t-56.5 77.5
q46 -16 84 -38t68 -44q36 -26 62.5 -51t42.5 -42q-16 -16 -42.5 -41t-62.5 -52zM388 473q-2 -9 -3.5 -18.5t-1.5 -19.5q0 -53 37.5 -91t91.5 -38t91.5 38t37.5 91q0 54 -37.5 91.5t-91.5 37.5q-26 0 -49 -9.5t-41 -26.5l64 -72z" />
    <glyph glyph-name="uniE99D" unicode="&#xf99d;" 
d="M354 337l-269 -269v197h-85v-342h341v86h-192l269 268zM939 68l-794 794h196v85h-341v-341h85v196l794 -793h-196v-86h341v342h-85v-197zM683 947v-85h200l-269 -269l60 -60l265 265v-192h85v341h-341z" />
    <glyph glyph-name="uniE99E" unicode="&#xf99e;" 
d="M878 124q-22 0 -37.5 -15.5t-15.5 -37.5t15.5 -37.5t37.5 -15.5t37.5 15.5t15.5 37.5t-15.5 37.5t-37.5 15.5zM878 49q-9 0 -15.5 6.5t-6.5 15.5t6.5 15t15.5 6t15.5 -6t6.5 -15t-6.5 -15.5t-15.5 -6.5zM1021 74q-1 29 -13 54.5t-34 45.5l-316 285l280 279q1 1 2.5 1.5
t2.5 0.5l61 32q6 4 10 9.5t5 12.5t-1 13.5t-7 11.5l-68 68q-5 5 -12 7.5t-14 1.5q-7 -2 -12.5 -6t-8.5 -10l-32 -60l-2 -3v-3l-132 -132q-5 -4 -5 -10.5t5 -11.5q4 -4 10.5 -4t11.5 4l121 121l32 -32l-310 -309l-31 32l135 135q4 4 4 10.5t-4 11.5q-5 5 -11.5 5t-11.5 -5
l-98 -98l-106 96q23 66 7.5 133t-64.5 117q-51 50 -121 65t-136 -11q-4 -1 -6.5 -4t-3.5 -7t0.5 -8t3.5 -7l124 -123q2 -2 3.5 -5.5t1.5 -7.5t-1.5 -7.5t-3.5 -6.5l-80 -80q-3 -3 -6.5 -4.5t-7.5 -1.5t-7.5 1.5t-6.5 4.5l-123 123q-3 3 -6.5 4t-7.5 0q-4 0 -7 -3t-5 -6
q-25 -67 -10.5 -137t65.5 -120q48 -48 114 -64t130 5l83 -90q-3 -6 -7 -11.5t-9 -9.5q-17 -18 -42 -23.5t-48 4.5q-5 1 -9.5 0t-7.5 -4l-192 -192q-39 -39 -39 -94.5t39 -94.5q19 -19 43 -29t51 -10t51.5 10t42.5 29l193 192q3 4 4 8.5t-1 8.5q-9 24 -4 48.5t23 42.5
t42.5 23t48.5 -4q4 -2 8.5 -1t8.5 5l36 36q8 8 12.5 18.5t4.5 22.5q0 11 -4.5 21.5t-12.5 18.5l-15 16l18 19l317 -286q17 -15 26.5 -35.5t9.5 -42.5q1 -23 -7.5 -43.5t-24.5 -36.5q-15 -16 -35.5 -24t-43.5 -8q-22 1 -42 10t-36 26l-235 257q-5 5 -11.5 5.5t-11.5 -4.5
q-4 -4 -4.5 -10.5t3.5 -11.5l236 -258q20 -21 46 -32.5t54 -12.5h4q28 0 53.5 10.5t45.5 30.5t30.5 46.5t10.5 56.5zM892 806l30 57l65 -64l-57 -30zM335 506q-4 3 -8.5 4.5t-8.5 -0.5q-58 -21 -118.5 -8t-103.5 56q-39 40 -53.5 93.5t-1.5 106.5l105 -105q7 -7 16.5 -11
t19.5 -4t19.5 4t16.5 11l80 80q7 7 11 16t4 20q0 10 -4 19t-11 16l-105 105q53 14 106.5 -0.5t92.5 -54.5q45 -44 57.5 -105.5t-10.5 -119.5q-2 -5 -1 -10t5 -8l113 -102l-15 -15l-15 15q-8 9 -18.5 13t-22.5 4q-11 0 -22 -4t-19 -13l-36 -36q-3 -3 -4 -7.5t1 -9.5
q3 -8 4 -16t1 -17zM611 343l-30 -29q-30 8 -60.5 0.5t-53.5 -30.5q-23 -22 -30.5 -53t0.5 -61l-185 -186q-14 -14 -32.5 -21.5t-39.5 -7.5q-20 0 -39 7.5t-33 21.5q-30 30 -30 72.5t30 72.5l185 185q31 -9 61.5 -1t53.5 30q22 23 30 54t-1 61l29 29q8 8 19 8t19 -8l107 -107
q7 -7 7 -18t-7 -19zM325 255q-5 4 -11.5 4t-11.5 -4l-148 -149q-5 -5 -5 -11.5t5 -10.5q2 -2 5 -3.5t6 -1.5t6 1.5t5 3.5l149 149q4 4 4 10.5t-4 11.5zM380 200q-5 4 -11.5 4t-11.5 -4l-148 -149q-5 -4 -5 -10.5t5 -11.5q2 -2 5 -3.5t6 -1.5t6 1.5t5 3.5l149 149q4 4 4 10.5
t-4 11.5z" />
    <glyph glyph-name="uniE99F" unicode="&#xf99f;" 
d="M874 797q-36 37 -78 64q-42 28 -88 47.5t-95 28.5q-50 10 -101 10t-101 -10q-49 -9 -95 -28.5t-88 -47.5q-42 -27 -78 -64q-36 -36 -64 -78t-47 -88t-29 -95q-10 -50 -10 -101q0 -67 17.5 -132.5t51.5 -123.5q33 -57 79.5 -104.5t103.5 -80.5q59 -35 125 -53t135 -18
t135 18t125 53q57 33 103.5 80.5t79.5 104.5q34 58 51.5 123.5t17.5 132.5q0 51 -10 101q-10 49 -29 95t-47 88t-64 78zM41 435q0 95 35 179t96 147.5t144 101.5q82 39 176 43v-459l-398 -230q-26 51 -39.5 106t-13.5 112zM512 -36q-60 0 -118 15q-57 15 -108.5 43.5
t-95.5 68.5q-43 40 -76 91l398 230l398 -230q-33 -51 -76 -91q-44 -40 -95.5 -68.5t-108.5 -43.5q-58 -15 -118 -15zM930 217l-398 230v459q94 -4 176 -43q83 -38 144 -101.5t96 -147.5t35 -179q0 -57 -13.5 -112t-39.5 -106zM824 363l-7 4q-7 4 -15.5 2t-12.5 -9
q-4 -8 -2 -16t10 -12l7 -4q2 -2 4.5 -2.5t5.5 -0.5q5 0 10 2.5t8 7.5q4 7 1.5 15.5t-9.5 12.5zM761 400l-161 94q-8 4 -16 2t-12 -10q-4 -7 -2 -15t9 -13l161 -93q3 -2 5.5 -2.5t5.5 -0.5q5 0 9.5 2.5t7.5 7.5q5 7 2.5 15.5t-9.5 12.5z" />
    <glyph glyph-name="uniE9A0" unicode="&#xf9a0;" 
d="M512 1q-3 0 -6.5 1.5t-5.5 3.5l-496 590q-4 4 -4 9.5t3 9.5l186 248q2 3 5.5 5t7.5 2h620q4 0 7.5 -2t5.5 -5l186 -248q3 -4 3 -9.5t-4 -9.5l-496 -590q-2 -2 -5.5 -3.5t-6.5 -1.5zM35 606l477 -566l477 566l-174 233h-606zM1008 590h-992q-7 0 -11.5 4.5t-4.5 11.5
q0 6 4.5 10.5t11.5 4.5h992q7 0 11.5 -4.5t4.5 -10.5q0 -7 -4.5 -11.5t-11.5 -4.5zM512 1h-5q-6 2 -9 8t-1 12l186 590q2 6 8 9t12 1t9 -8t1 -12l-186 -589q-2 -5 -6 -8t-9 -3zM512 1q-5 0 -9 3t-6 8l-186 589q-2 6 1 12t9 8t12 -1t8 -9l186 -590q2 -6 -1 -12t-9 -7
q-1 -1 -3 -1h-2zM326 590q-4 0 -8 2.5t-6 6.5l-124 248q-3 6 -1 12t8 9t12 1t9 -8l124 -248q3 -6 0.5 -12t-7.5 -9q-2 -1 -3.5 -1.5t-3.5 -0.5zM326 590q-3 0 -5 1l-4 2q-6 4 -6.5 10.5t2.5 11.5l187 248q3 6 9.5 6.5t11.5 -2.5q5 -4 6 -10.5t-3 -11.5l-186 -248
q-2 -3 -5.5 -5t-6.5 -2zM698 590q-3 0 -6.5 2t-5.5 5l-186 248q-4 5 -3 11.5t6 10.5q5 3 11.5 2.5t9.5 -6.5l187 -248q3 -5 2.5 -11.5t-6.5 -10.5l-4 -2zM698 590q-2 0 -3.5 0.5t-3.5 1.5q-5 3 -7.5 9t0.5 12l124 248q3 6 9 8t12 -1t8 -9t-1 -12l-124 -248q-2 -4 -6 -6.5
t-8 -2.5z" />
    <glyph glyph-name="uniE9A1" unicode="&#xf9a1;" 
d="M1024 602q0 57 -22 108q-21 50 -59 87.5t-88 59.5t-108 22q-74 0 -136.5 -36.5t-98.5 -95.5q-36 59 -98.5 95.5t-137.5 36.5q-57 0 -107 -22t-88 -59.5t-59 -87.5q-22 -51 -22 -108q0 -62 25.5 -116t69.5 -92l392 -392q5 -5 11.5 -7.5t13.5 -2.5t13.5 2.5t11.5 7.5
l392 392q44 38 69.5 92t25.5 116z" />
    <glyph glyph-name="uniE9A2" unicode="&#xf9a2;" 
d="M1022 627q-5 62 -29 114q-23 52 -60 90t-85 59t-103 21q-73 0 -135.5 -36.5t-100.5 -99.5q-37 64 -98 100t-132 36q-55 0 -103 -21t-85 -59t-60 -90q-24 -52 -29 -114q-1 -5 -2 -33t10 -75q16 -67 52.5 -127.5t89.5 -108.5l357 -324l363 324q53 48 89.5 108.5t52.5 127.5
q11 47 10 75t-2 33zM975 528q-14 -61 -47 -116t-83 -100l-336 -300l-330 300q-50 45 -83 100t-47 117q-11 44 -9 68l1 24v2q5 54 25 100q20 45 51.5 78.5t73.5 51.5q41 19 88 19q69 0 126 -40t86 -108l18 -43l18 43q29 67 88 107.5t130 40.5q47 0 88 -19q42 -18 73.5 -51.5
t51.5 -79.5q21 -46 25 -101l1 -24z" />
    <glyph glyph-name="uniE9A3" unicode="&#xf9a3;" 
d="M903 473q-26 13 -63 15t-39 2q-7 0 -11 -4t-4 -11q0 -6 4 -10.5t11 -4.5q12 0 41.5 -2.5t47.5 -11.5q2 -1 3.5 -1.5t3.5 -0.5q4 0 7.5 2.5t5.5 6.5q3 5 1 11t-8 9zM978 259l-62 18q-2 0 -3 2t-1 4v21q4 2 7.5 5t6.5 6q16 16 25 36.5t9 43.5v29l6 12q5 9 7.5 20t2.5 22v77
q0 7 -4.5 11t-10.5 4h-144q-40 0 -68 -27.5t-28 -68.5q0 -9 2.5 -18t6.5 -17l7 -15v-25q0 -29 13.5 -54t35.5 -40v-22q0 -3 -2 -4.5t-11 -3.5l-30 -9l-88 32q1 3 0 6t-4 5l-28 30v49q3 2 5 3.5t4 3.5q27 25 41.5 58.5t14.5 69.5v40q8 17 12 35.5t4 37.5v160q0 6 -4.5 10.5
t-10.5 4.5h-225q-59 0 -101 -42t-42 -101v-32q0 -19 4 -37.5t12 -35.5v-34q0 -42 17.5 -78.5t46.5 -61.5v-50l-28 -30q-2 -2 -3 -5t-1 -6l-92 -34q-5 -2 -10 -4.5t-9 -5.5l-14 8q32 14 44.5 29.5t12.5 16.5q2 3 2 6.5t-2 7.5q-8 16 -10 42.5t-3 50.5q0 8 -0.5 15.5
t-0.5 13.5q-4 54 -40.5 90t-87.5 36q-50 0 -86.5 -36t-40.5 -90q0 -6 -0.5 -13.5t-0.5 -15.5q-1 -24 -3 -50.5t-10 -42.5q-2 -4 -2 -7.5t2 -6.5q0 -1 12.5 -16.5t44.5 -29.5l-40 -20q-16 -8 -25.5 -23.5t-9.5 -33.5v-111q0 -6 4.5 -10.5t10.5 -4.5t10.5 4.5t4.5 10.5v111
q0 10 5 18t13 12l50 25l18 -17q9 -8 20.5 -12.5t22.5 -4.5q12 0 23.5 4.5t20.5 12.5l17 17l17 -8q-6 -10 -9 -20.5t-3 -21.5v-116q0 -6 4 -10.5t11 -4.5q6 0 10.5 4.5t4.5 10.5v116q0 15 8.5 28t23.5 18l97 35l41 -60q4 -6 10 -9.5t12 -4.5h4q6 0 11.5 2t9.5 7l25 25v-157
q0 -6 4.5 -10.5t10.5 -4.5t10.5 4.5t4.5 10.5v157l25 -25q4 -5 10 -7t12 -2h3q7 1 13 4.5t10 9.5l40 60l97 -35q15 -5 24 -18t9 -28v-116q0 -6 4.5 -10.5t10.5 -4.5t10.5 4.5t4.5 10.5v116q0 15 -6 29.5t-16 25.5l3 1q3 1 6.5 2t7.5 3l39 -39v-138q0 -6 4 -10.5t11 -4.5
q6 0 10.5 4.5t4.5 10.5v138l38 38q1 0 2.5 -1t3.5 -1l62 -18q11 -3 17.5 -12t6.5 -20v-124q0 -6 4.5 -10.5t10.5 -4.5t10.5 4.5t4.5 10.5v124q0 21 -13 38t-33 23zM96 286q-21 7 -32 16t-16 15q3 8 5 17l4 18q6 -14 16 -26.5t23 -21.5v-18zM182 245q-9 -9 -22.5 -9t-22.5 9
l-14 13q1 4 2 7.5t1 7.5v16q8 -3 16.5 -4t16.5 -1q9 0 17.5 1t15.5 4v-16q0 -4 1 -7.5t3 -7.5zM159 314q-33 0 -57 24t-24 57q0 6 -4.5 10.5t-10.5 4.5h-2v4q0 7 0.5 14.5t0.5 13.5q1 20 9 38t21 32q14 14 31 21t36 7t36.5 -7t30.5 -21q14 -14 21.5 -32t9.5 -38
q0 -6 0.5 -13.5t0.5 -14.5v-3q-12 19 -31 32.5t-43 21.5q-23 7 -39.5 8t-17.5 1q-3 0 -5.5 -1t-5.5 -3l-27 -28q-4 -5 -4 -11t5 -11q4 -4 10.5 -4t10.5 5l23 23q14 -1 50.5 -11t55.5 -51q-5 -29 -27.5 -48.5t-53.5 -19.5zM222 286v17q14 9 24 21.5t16 27.5q1 -9 3.5 -18
t5.5 -17q-5 -6 -16.5 -15t-32.5 -16zM367 529v37q0 2 -0.5 3.5t-1.5 3.5q-7 15 -10.5 30.5t-3.5 32.5v32q0 47 33 80t80 33h210v-145q0 -17 -4 -32.5t-11 -30.5q-1 -2 -1 -3v-47q0 -30 -12 -57.5t-34 -48.5q-3 -2 -6 -4.5t-6 -5.5q-21 -15 -46 -22.5t-52 -6.5
q-57 4 -96 47.5t-39 103.5zM450 227l-47 70l15 16l71 -48zM512 285l-81 55v28q16 -8 33.5 -13t36.5 -7h11q22 0 42.5 5t38.5 15v-28zM575 227h-2l-37 38l70 48l15 -16zM849 240l-34 34q0 2 0.5 4t0.5 5v6q7 -2 14 -3.5t15 -1.5h4q8 0 16.5 1t16.5 4v-11l1 -4zM905 337
q-12 -12 -27 -18t-32 -5q-32 1 -55.5 26t-23.5 59v31l-1 4l-9 18q-3 6 -4.5 11.5t-1.5 11.5q0 27 19.5 46t46.5 19h129v-62q0 -7 -2 -14.5t-5 -14.5l-8 -15q0 -2 -0.5 -3.5t-0.5 -3.5v-32q0 -17 -6.5 -32t-18.5 -26zM945 186q-6 0 -10.5 -4.5t-4.5 -10.5v-97q0 -6 4.5 -10.5
t10.5 -4.5t10.5 4.5t4.5 10.5v97q0 6 -4.5 10.5t-10.5 4.5zM79 166q-6 0 -10.5 -4.5t-4.5 -10.5v-77q0 -6 4.5 -10.5t10.5 -4.5t10.5 4.5t4.5 10.5v77q0 6 -4.5 10.5t-10.5 4.5zM635 630q-42 43 -114.5 43.5t-109.5 -4.5q-11 -2 -18.5 -10.5t-7.5 -20.5v-34q0 -7 4.5 -11
t10.5 -4t10.5 4t4.5 11v34l1 1q14 2 40.5 4.5t56.5 0.5q35 -2 60.5 -11t40.5 -24q4 -4 10.5 -4t10.5 4t4 10.5t-4 10.5zM336 153q-6 0 -10.5 -4t-4.5 -11v-64q0 -6 4.5 -10.5t10.5 -4.5t10.5 4.5t4.5 10.5v64q0 7 -4.5 11t-10.5 4zM689 153q-7 0 -11 -4t-4 -11v-64
q0 -6 4 -10.5t11 -4.5q6 0 10.5 4.5t4.5 10.5v64q0 7 -4.5 11t-10.5 4z" />
    <glyph glyph-name="uniE9A4" unicode="&#xf9a4;" 
d="M1018 624l-217 216q-2 3 -6 4.5t-8 1.5h-154q-8 0 -14 -5t-6 -14q-3 -39 -32.5 -66t-68.5 -27t-68.5 27t-32.5 66q0 8 -5.5 13.5t-14.5 5.5h-153q-3 0 -7 -1.5t-7 -3.5l-218 -217q-6 -6 -6 -14t6 -14l169 -169q5 -5 13.5 -5t14.5 5l15 16v-399q0 -8 6 -14t14 -6h549
q8 0 14 6t6 14v398l14 -15q6 -5 14.5 -5t13.5 5l169 169q6 6 6 14t-6 14zM835 470l-35 34q-4 5 -10 6t-12 -1q-6 -3 -9 -7.5t-3 -11.5v-427h-508v428q0 6 -3 11.5t-9 7.5q-6 3 -11.5 1.5t-10.5 -5.5l-36 -36l-140 139l197 197h128q11 -48 50 -80t89 -32t89 32.5t48 80.5h129
l197 -196z" />
    <glyph glyph-name="uniE9A5" unicode="&#xf9a5;" 
d="M594 447l389 390q17 16 17 40t-17 41t-41 17t-41 -17l-389 -389l-389 389q-17 17 -41 17t-41 -17t-17 -41t17 -40l389 -390l-413 -413q-17 -17 -17 -41t17 -41q8 -8 19 -12.5t22 -4.5t21.5 4.5t19.5 12.5l413 413l413 -413q9 -8 19.5 -12.5t21.5 -4.5t22 4.5t19 12.5
q17 17 17 41t-17 41z" />
    <glyph glyph-name="uniE9A6" unicode="&#xf9a6;" 
d="M653 -77h-388q-6 0 -10.5 4t-5.5 10l-80 703q0 3 1 6.5t3 5.5q2 3 5 4t6 1h549q4 0 7 -1t5 -4q2 -2 3 -5.5t1 -6.5l-81 -703q0 -6 -4.5 -10t-10.5 -4zM279 -46h360l77 672h-514zM716 473h-512q-6 0 -10.5 4.5t-4.5 11.5q0 6 4.5 10.5t10.5 4.5h512q6 0 10.5 -4.5
t4.5 -10.5q0 -7 -4.5 -11.5t-10.5 -4.5zM438 254h-96q-6 0 -10.5 4.5t-4.5 10.5v96q0 6 4.5 10.5t10.5 4.5h96q7 0 11.5 -4.5t4.5 -10.5v-96q0 -6 -4.5 -10.5t-11.5 -4.5zM358 285h65v64h-65v-64zM550 59q-2 0 -4 0.5t-4 1.5l-82 50q-5 3 -6.5 9.5t1.5 11.5l50 82
q3 5 9.5 6.5t11.5 -1.5l82 -50q5 -3 6.5 -9.5t-1.5 -11.5l-50 -82q-2 -4 -5.5 -5.5t-7.5 -1.5zM490 129l55 -33l34 55l-56 34zM734 454h-9l-9 1q-6 0 -10.5 5t-3.5 12q1 6 5.5 10t11.5 4q4 -1 7 -1h8q67 0 114.5 47.5t47.5 114.5t-47.5 114.5t-114.5 47.5t-114.5 -47.5
t-47.5 -114.5q0 -7 -4.5 -11.5t-10.5 -4.5q-7 0 -11.5 4.5t-4.5 11.5q0 40 15 75q16 35 42 61t61 42q35 15 75 15t75 -15q35 -16 61.5 -42t41.5 -61t15 -75t-15 -75t-41.5 -61.5t-61.5 -41.5t-75 -15zM342 631q-5 0 -9.5 3.5t-5.5 9.5l-47 272h-168q-6 0 -10.5 4.5
t-4.5 11.5q0 6 4.5 10.5t10.5 4.5h181q6 0 10 -3.5t5 -9.5l50 -285q1 -6 -3 -11t-10 -7h-3zM733 626q-6 0 -10.5 4.5t-4.5 11.5v182q0 7 4.5 11.5t10.5 4.5q7 0 11.5 -4.5t4.5 -11.5v-182q0 -7 -4.5 -11.5t-11.5 -4.5zM859 506q-3 0 -6 1.5t-5 3.5l-250 250q-4 4 -4 10.5
t4 11.5q5 4 11.5 4t10.5 -4l250 -250q5 -5 5 -11.5t-5 -10.5q-2 -2 -5 -3.5t-6 -1.5zM733 626q-3 0 -5.5 1t-5.5 4q-4 4 -4 10.5t4 11.5l127 126q4 5 10.5 5t11.5 -5q4 -4 4 -10.5t-4 -11.5l-127 -126q-2 -3 -5 -4t-6 -1zM912 631h-179q-6 0 -10.5 4.5t-4.5 11.5
q0 6 4.5 10.5t10.5 4.5h179q6 0 10.5 -4.5t4.5 -10.5q0 -7 -4.5 -11.5t-10.5 -4.5z" />
    <glyph glyph-name="uniE9A7" unicode="&#xf9a7;" 
d="M1013 531l-485 355q-7 6 -16 6t-16 -6l-485 -355q-9 -6 -10.5 -17t4.5 -20q7 -9 17.5 -10.5t19.5 4.5l470 344l470 -344q3 -2 7 -3.5t8 -1.5q7 0 12.5 3t9.5 8q6 9 4.5 20t-10.5 17zM884 482q-11 0 -18.5 -7.5t-7.5 -18.5v-424h-213v231q0 55 -39 94t-94 39t-94 -39
t-39 -94v-231h-213v424q0 11 -7.5 18.5t-18.5 7.5q-12 0 -19.5 -7.5t-7.5 -18.5v-451q0 -11 7.5 -18.5t19.5 -7.5h266q10 0 17.5 7t8.5 17v260q0 33 23.5 56.5t56.5 23.5t56.5 -23.5t23.5 -56.5v-260q1 -10 8.5 -17t17.5 -7h266q12 0 19.5 7.5t7.5 18.5v451q0 11 -7.5 18.5
t-19.5 7.5z" />
    <glyph glyph-name="uniE9A8" unicode="&#xf9a8;" 
d="M980 943q-3 2 -6.5 3.5t-7.5 0.5l-577 -75q-7 -1 -12 -6t-5 -12v-663q-25 31 -64 49t-85 18q-77 0 -131.5 -49t-54.5 -118q0 -70 54.5 -119t131.5 -49t132 49t55 119q0 3 -0.5 6t-0.5 7l1 1v542l540 70v-340q-26 31 -65 49.5t-84 18.5q-77 0 -132 -49.5t-55 -118.5
t55 -118.5t132 -49.5q76 0 130.5 48.5t55.5 116.5v655q0 4 -2 7.5t-5 6.5zM223 -40q-61 0 -105 38.5t-44 92.5t44 92t105 38q62 0 105.5 -38t43.5 -92t-43.5 -92.5t-105.5 -38.5zM801 147q-62 0 -105.5 38t-43.5 92t43.5 92t105.5 38q61 0 105 -38t44 -92t-44 -92t-105 -38z
M410 685v153l540 69v-152z" />
    <glyph glyph-name="uniE9A9" unicode="&#xf9a9;" 
d="M283 776q5 -15 18 -24.5t29 -9.5h126q16 0 29 9.5t18 24.5q5 14 18.5 40t25.5 36q10 9 15 22t2 26q-3 14 -11.5 23.5t-21.5 14.5q-38 12 -71.5 8t-59.5 -25q-5 -4 -10.5 -4t-10.5 4q-26 21 -59.5 25t-72.5 -8q-12 -5 -21 -14.5t-11 -23.5q-3 -13 1.5 -26t15.5 -22
q14 -12 30.5 -38.5t20.5 -37.5zM248 894q1 2 3 5.5t7 5.5q12 4 23 6t22 2q15 0 29 -4.5t26 -14.5q14 -11 31.5 -11t31.5 11q19 16 44 18.5t55 -7.5q6 -2 8 -5.5t2 -5.5q1 -5 -0.5 -9t-4.5 -7q-20 -17 -35.5 -49t-18.5 -42q-2 -5 -6 -7.5t-8 -2.5h-127q-5 0 -9 2.5t-6 7.5
q-5 16 -24.5 46.5t-36.5 44.5q-4 3 -5.5 7t-0.5 9zM538 708q0 7 -5 12t-12 5q-2 0 -4.5 -0.5t-3.5 -1.5q-2 1 -4.5 1.5t-4.5 0.5h-205q-7 0 -12 -5t-5 -12t5 -12t12 -5h205v-17h-188q-7 0 -12 -5t-5 -12t5 -12t12 -5h204q11 -10 25 -15t29 -5q17 0 32.5 6.5t27.5 18.5
q5 5 5 12t-5 12t-12 5t-12 -5q-14 -14 -35.5 -14t-36.5 14v39zM367 503q-41 0 -83 -23q-42 -24 -77 -61t-57 -82q-21 -46 -21 -90q0 -7 5 -12t12 -5t12 5t5 12q0 37 19 76t49 71.5t67 53.5q36 21 69 21q8 0 13 5t5 12t-5 12t-13 5zM845 401q-13 0 -28 -1t-31 -2
q-18 31 -40.5 58t-51.5 49l-123 84q-15 11 -38 22.5t-51 11.5h-133q-25 0 -48.5 -8t-42.5 -23l-120 -88q-48 -37 -78 -87q-31 -49 -43.5 -104t-6.5 -112t33 -110q19 -38 51.5 -75.5t76.5 -40.5q3 0 6.5 -0.5t7.5 -0.5h332q19 -23 46.5 -37t59.5 -14q38 0 68.5 18.5
t48.5 47.5q23 -7 50 -11t55 -4q62 0 116.5 18.5t54.5 50.5l-1 94q0 2 0.5 4t0.5 4v196q0 36 -61.5 48t-109.5 12zM981 342l-1 -1l-2 -1l-1 -1q-1 -1 -2 -1.5t-2 -1.5q-1 0 -2 -0.5t-2 -0.5q-1 -1 -2.5 -1.5t-3.5 -1.5q-1 0 -2.5 -0.5t-2.5 -1.5q-2 0 -4 -1t-5 -1
q-1 -1 -3 -1.5t-4 -0.5q-2 -1 -4.5 -1.5t-5.5 -0.5q-2 -1 -4 -1.5t-4 -0.5q-3 -1 -6.5 -1.5t-7.5 -0.5q-2 0 -4 -0.5t-5 -0.5q-4 -1 -8.5 -1t-8.5 -1h-9q-7 -1 -15 -1h-30l-14 1h-9q-5 1 -9 1t-8 1q-3 0 -5 0.5t-5 0.5t-6.5 0.5t-6.5 1.5q-2 0 -4 0.5t-4 1.5q-3 0 -5.5 0.5
t-5.5 1.5q-2 0 -3.5 0.5t-3.5 1.5q-2 0 -4 1t-4 1q-1 1 -2.5 1.5t-2.5 0.5q-2 1 -3.5 1.5t-3.5 1.5q-1 0 -3 1l-3 2l-1 1q-1 0 -1.5 0.5t-1.5 0.5q0 1 -1 2h2l1 2q1 0 2.5 1t2.5 2q1 0 2 0.5t2 0.5q1 1 2 1.5t2 0.5q2 1 3.5 1.5t2.5 0.5q1 1 2.5 1t2.5 1q3 1 6 1.5t7 1.5
q1 1 3 1t3 1q2 0 4.5 0.5t4.5 0.5q3 1 5.5 1.5t5.5 0.5q14 2 31.5 3.5t37.5 1.5q61 0 94.5 -9.5t41.5 -15.5zM720 201q2 0 3 -0.5t2 -1.5q2 -1 4.5 -1.5t4.5 -1.5q1 -1 2.5 -1t2.5 -1q3 -1 5.5 -1.5t5.5 -1.5q1 0 2 -0.5t2 -0.5l16 -4h4q3 -1 6 -1.5t7 -0.5q1 -1 3 -1h3
q2 -1 5 -1t6 -1h6q3 0 6 -0.5t6 -0.5h6q4 -1 8 -1h18l9 1h5q3 0 6 0.5t6 0.5h7q3 1 5.5 1t5.5 1h4l2 1q3 0 6.5 0.5t6.5 1.5h4l8 2l7 2q2 0 3 0.5t2 0.5q2 1 5 1.5t6 1.5q1 1 2 1t3 1t4.5 1.5t4.5 1.5q1 1 2 1.5t2 0.5q3 1 5 2l4 2l1 1h2v-60q-3 -7 -34 -19.5t-84 -15.5h-19
q-28 0 -54.5 4t-48.5 12q-2 3 -3.5 5.5t-3.5 5.5l-1 1q-1 2 -3 4.5t-3 4.5q-1 0 -1.5 1t-1.5 1q-1 2 -3 4l-5 5l-2 1q-1 2 -2.5 3t-3.5 3v40q1 0 1.5 -0.5t1.5 -0.5zM495 9h-322q-25 2 -50.5 27t-49.5 71q-24 47 -29 98q-6 51 5.5 100.5t39.5 93.5q27 44 69 78l121 88
q15 11 33 17.5t37 6.5h133q20 0 38.5 -9t30.5 -19l123 -83q23 -18 42 -39.5t34 -46.5q-16 -3 -31 -8t-26 -13l-1 -1q-2 -1 -3.5 -2t-2.5 -3q-1 0 -1.5 -0.5t-0.5 -1.5l-2 -2l-2 -3q-1 -1 -1.5 -2t-0.5 -2q-1 -1 -1 -2t-1 -2q-1 -2 -1 -4v-160q-5 2 -9.5 3.5t-9.5 2.5l-2 1
q-4 1 -8.5 1.5t-9.5 1.5h-22q-5 -1 -9.5 -1.5t-8.5 -1.5h-2l-8 -2l-8 -3q-1 0 -2.5 -0.5t-2.5 -1.5q-4 -1 -7.5 -3t-7.5 -3q-1 -1 -2.5 -2t-2.5 -2q-3 -1 -5 -2.5t-5 -3.5q-1 -1 -2.5 -2t-2.5 -2q-3 -3 -6 -5.5t-6 -5.5l-2 -2l-2 -3l-4 -4l-4 -5l-2 -2l-1 -3q-3 -3 -5 -6.5
t-4 -6.5q0 -2 -1 -3t-1 -3q-2 -3 -3 -6t-2 -7q-1 -1 -1 -2l-1 -1q-1 -5 -2 -9t-2 -9v-2l-1 -1v-2q0 -3 -0.5 -6t-0.5 -6v-14q1 -11 3 -22t5 -21zM623 -43q-42 0 -71.5 30t-30.5 72v7l1 2v7l1 2q0 4 1 7t2 8q1 3 2.5 6t3.5 6v2q7 13 17.5 24t24.5 19q3 2 6 3.5t6 2.5q1 0 3 1
l12 4h2q3 1 7 1.5t7 0.5h11l8 -1q4 0 8 -1l8 -2q4 -1 7.5 -2.5t7.5 -3.5q4 -1 7 -3l6 -4l1 -1q1 -1 2 -1q2 -2 4 -3.5t4 -2.5q1 -2 2 -2l4 -4l3 -4l1 -1q4 -4 7.5 -9.5t6.5 -10.5l2 -6l2 -4l2 -5q1 -3 1.5 -5t1.5 -5q0 -3 0.5 -5.5t0.5 -5.5q1 -2 1 -5v-11l-1 -5v-2
q0 -2 -0.5 -4.5t-0.5 -4.5l-1 -1q0 -2 -1 -4.5t-1 -5.5q-1 -2 -2 -4.5t-2 -5.5q-12 -26 -37 -43t-57 -17zM845 9q-24 0 -47.5 3t-43.5 9q2 4 2.5 8t1.5 9q0 1 0.5 2t0.5 2q0 4 0.5 8.5t0.5 9.5v6l-1 7v5q0 1 -0.5 2.5t-0.5 3.5q19 -3 41.5 -5t45.5 -2q31 0 70 4.5t67 16.5
v-54q-3 -8 -39.5 -21.5t-97.5 -13.5zM845 213q-60 0 -96.5 13.5t-39.5 20.5v29l1 27q3 -2 6.5 -3t6.5 -2l1 -1q3 -1 7 -2t7 -2q2 0 3 -0.5t2 -0.5q3 -1 6 -1.5t6 -0.5q1 0 2.5 -0.5t2.5 -0.5q3 -1 6 -1.5t7 -0.5q1 0 2 -0.5t2 -0.5q4 0 8 -0.5t8 -1.5h4q3 0 6.5 -0.5
t6.5 -0.5h5q3 -1 5 -1h50l6 1h5q3 0 6 0.5t7 0.5h4q4 1 8 1.5t8 0.5q1 0 2 0.5t2 0.5q3 0 6.5 0.5t6.5 1.5q1 0 2.5 0.5t2.5 0.5q3 0 6 1t5 1t3 0.5t2 0.5l8 2l8 3l6 2l6 3h2v-54q-3 -8 -39.5 -22t-97.5 -14z" />
    <glyph glyph-name="uniE9AA" unicode="&#xf9aa;" 
d="M579 -38h-65q-8 0 -13.5 -5.5t-5.5 -13.5q0 -7 5 -12.5t14 -5.5h65q7 0 12.5 5t5.5 13t-5 13.5t-13 5.5zM674 -38h-39q-7 0 -12.5 -5.5t-5.5 -13.5q0 -7 5 -12.5t13 -5.5h39q8 0 13.5 5t5.5 13t-5.5 13.5t-13.5 5.5zM800 946q-8 2 -16.5 0t-18.5 -9q-15 -10 -38 -37.5
t-52 -67.5l-313 -440q-29 -5 -54.5 -20t-44.5 -38q-35 -42 -46.5 -89.5t-7.5 -94.5q5 -68 32.5 -126t50.5 -83q11 -12 19 -15.5t16 -0.5l128 2q7 0 12.5 5t5.5 13t-5 13.5t-13 5.5l-101 -1q7 12 20 27t38 31q34 23 70 51t59 68q18 30 21.5 63.5t-4.5 65.5l-2 6l-2 7l219 501
q21 49 31.5 81t11.5 48q1 13 -3 22t-13 12zM510 156q-19 -34 -52 -59t-65 -46q-36 -23 -51.5 -45t-23.5 -37q-20 24 -42.5 74t-27.5 109q-3 39 6.5 80t38.5 76q16 19 35.5 31.5t42.5 13.5q58 4 100.5 -30t51.5 -66q8 -24 4.5 -51t-17.5 -50zM529 327q-37 44 -79 55l-41 12
l124 173l83 -49zM738 796l-106 -243l-77 44l152 211q21 29 38 51t30 35q-4 -16 -13 -40.5t-24 -57.5z" />
    <glyph glyph-name="uniE9AB" unicode="&#xf9ab;" 
d="M24 595q0 73 27 137q28 64 76 112t112 75q64 28 137 28q72 0 136 -28q65 -27 112.5 -75t75.5 -112t28 -137v-16l2 -509l216 216l54 -54l-308 -309l-314 314l54 54l221 -221l-2 470v55q0 57 -22 107q-21 50 -58.5 87.5t-87.5 59.5q-50 21 -107 21t-107 -21
q-51 -22 -88 -59.5t-59 -87.5t-22 -107v-672h-76v672z" />
    <glyph glyph-name="uniE9AC" unicode="&#xf9ac;" 
d="M812 572q-1 59 -24 110q-23 52 -61.5 90t-90.5 61q-52 22 -110 22q-53 0 -101.5 -18.5t-87.5 -53.5q-35 -30 -58.5 -70.5t-33.5 -85.5h-2q-51 0 -95 -19t-77 -52t-52 -77t-19 -94q0 -51 19 -95t52 -77t77 -52t95 -19h89q9 0 15.5 6.5t6.5 15.5t-6.5 15.5t-15.5 6.5h-89
q-41 0 -78 15q-36 16 -63 43t-43 63q-15 36 -15 78q0 41 15 77q16 36 43 63t63 43q37 16 78 16q4 0 8.5 -0.5t10.5 -0.5q8 -1 15 4.5t8 13.5q6 44 27 82.5t53 67.5q34 29 75 44.5t86 15.5q50 0 94 -19t77 -52t52 -77q19 -45 19 -95v-10l-1 -7q0 -5 1.5 -9.5t5.5 -7.5
q3 -4 8 -5.5t9 -0.5q5 0 9 0.5t9 0.5q71 0 121 -50.5t50 -121.5t-50 -121t-121 -50h-98q-9 0 -15.5 -6.5t-6.5 -15.5t6.5 -15.5t15.5 -6.5h98q44 0 83 17q40 17 69 46t46 68q17 40 17 84t-17 83q-16 39 -45 68t-67 46q-39 18 -83 18zM526 752q-69 0 -121 -45.5t-61 -113.5
q-2 -9 3.5 -16t14.5 -8q10 -2 17 4t8 14q7 52 46.5 86.5t92.5 34.5q9 0 15 6.5t6 15.5t-6 15.5t-15 6.5zM627 127q-6 6 -15.5 6.5t-15.5 -5.5l-53 -47v269q0 9 -6.5 15.5t-15.5 6.5t-15 -6.5t-6 -15.5v-269l-53 47q-7 6 -16 5.5t-15 -6.5q-6 -7 -5.5 -16t7.5 -15l79 -71
q5 -5 11.5 -7t12.5 -2q7 0 13 2t11 7l80 71q7 6 7.5 15t-5.5 16z" />
    <glyph glyph-name="uniE9AD" unicode="&#xf9ad;" 
d="M1023 306q-1 44 -8.5 91.5t-19.5 93.5q-11 44 -25.5 84t-31.5 72q-67 118 -141 121.5t-161 -19.5q-28 -7 -57.5 -13.5t-60.5 -9.5h-12q-31 3 -60.5 9.5t-57.5 13.5q-87 22 -161 18.5t-141 -121.5q-17 -32 -32 -72t-25 -84q-12 -46 -19.5 -93.5t-8.5 -91.5
q-2 -49 2.5 -84.5t14.5 -60.5q11 -23 26.5 -37.5t35.5 -20.5q18 -4 38.5 -2t42.5 11q38 16 79.5 46.5t84.5 69.5q29 29 80.5 43.5t106.5 14.5t106.5 -14.5t80.5 -43.5q43 -39 84.5 -69.5t79.5 -46.5q22 -8 42.5 -10.5t38.5 1.5q20 6 35.5 20t26.5 39q10 24 14.5 60t2.5 85z
M962 179q-6 -14 -13.5 -21.5t-16.5 -10.5q-11 -3 -24 -1t-29 7q-33 14 -71 42t-77 64q-36 37 -95.5 55t-123.5 18t-123.5 -18t-97.5 -52q-39 -37 -77 -65.5t-71 -40.5q-15 -6 -28 -8t-24 1q-9 3 -17 11t-14 21q-7 19 -10.5 49t-1.5 74q2 41 8.5 86.5t18.5 89.5
q10 41 23.5 78t29.5 66q53 95 114.5 97t134.5 -17q29 -7 60 -14t65 -10h19q34 3 65.5 10t60.5 14q73 18 134.5 16.5t114.5 -96.5q16 -29 29.5 -65.5t23.5 -78.5q11 -44 18 -89t9 -87q2 -44 -1.5 -74.5t-12.5 -50.5zM395 555q-10 9 -21.5 15t-24.5 7q-1 12 -6.5 24t-14.5 20
l-1 2q-10 10 -23.5 15.5t-28.5 5.5q-16 0 -29.5 -6t-23.5 -15q-8 -9 -14 -21t-7 -25q-14 -1 -25.5 -6.5t-20.5 -14.5l-1 -1q-11 -10 -16.5 -23.5t-5.5 -28.5q0 -16 6 -29.5t16 -23.5q9 -9 20.5 -14.5t26.5 -6.5q1 -14 6.5 -26t14.5 -20q11 -11 24 -16.5t29 -5.5q15 0 28.5 6
t23.5 16q9 9 15 20.5t7 25.5q13 1 25 6.5t21 14.5q10 11 15.5 24t5.5 29q0 15 -6 28.5t-15 23.5zM363 484q-4 -4 -9 -6t-10 -2h-18q-10 0 -17 -7t-7 -17v-17q0 -6 -2 -10.5t-6 -8.5t-8.5 -6t-10.5 -2t-11 2t-8 6q-4 4 -6 8.5t-2 10.5v18q0 10 -7 17t-17 7h-18q-6 0 -10.5 2
t-8.5 6q-3 3 -5.5 7.5t-2.5 10.5t2 10.5t6 8.5l1 1q4 3 8.5 5t9.5 2h18q9 0 16.5 6.5t7.5 17.5v18q0 5 2 10t6 9q3 4 8 5.5t11 1.5t10.5 -1.5t8.5 -5.5l1 -1q3 -4 5 -9t2 -9v-18q0 -10 6.5 -17t17.5 -7h18q5 0 10 -2t9 -6t5.5 -8.5t1.5 -10.5t-1.5 -11t-5.5 -8zM779 593
q0 -18 -13.5 -31t-31.5 -13q-19 0 -32 13t-13 31q0 19 13 32t32 13q18 0 31.5 -13t13.5 -32zM779 412q0 -18 -13.5 -31t-31.5 -13q-19 0 -32 13t-13 31q0 19 13 32t32 13q18 0 31.5 -13t13.5 -32zM688 503q0 -19 -13 -32t-32 -13q-18 0 -31 13t-13 32q0 18 13 31t31 13
q19 0 32 -13t13 -31zM869 503q0 -19 -13 -32t-32 -13q-18 0 -31 13t-13 32q0 18 13 31t31 13q19 0 32 -13t13 -31z" />
    <glyph glyph-name="uniE9AE" unicode="&#xf9ae;" 
d="M512 947q-29 0 -49 -20.5t-20 -48.5v-173q0 -29 20 -49t49 -20t49 20t20 49v173q0 28 -20 48.5t-49 20.5zM542 705q0 -12 -9 -21t-21 -9t-21 9t-9 21v173q0 12 9 21t21 9t21 -9t9 -21v-173zM370 675l-122 122q-20 21 -49 21t-49 -21q-10 -10 -15 -22.5t-5 -26.5t5 -26.5
t15 -22.5l122 -122q10 -10 23 -15t26 -5q14 0 26.5 5t22.5 15q21 20 21 49t-21 49zM342 605q-8 -9 -20.5 -9t-21.5 9l-122 122q-4 4 -6.5 9.5t-2.5 11.5t2.5 11.5t6.5 9.5q4 5 9.5 7t11.5 2t11.5 -2t9.5 -7l122 -122q9 -9 9 -21t-9 -21zM242 505h-173q-28 0 -48.5 -20.5
t-20.5 -49.5t20.5 -49t48.5 -20h173q29 0 49.5 20t20.5 49t-20.5 49.5t-49.5 20.5zM242 405h-173q-12 0 -20.5 9t-8.5 21q0 13 8.5 21.5t20.5 8.5h173q13 0 21.5 -8.5t8.5 -21.5q0 -12 -8.5 -21t-21.5 -9zM370 294q-19 19 -48.5 19t-49.5 -19l-122 -123q-10 -9 -15 -22
t-5 -27t5 -26.5t15 -22.5t23 -15t26 -5t26 5t23 15l122 122q21 21 21 49.5t-21 49.5zM342 223l-122 -122q-9 -8 -21 -8t-21 8q-4 4 -6.5 9.5t-2.5 11.5t2.5 11.5t6.5 9.5l122 122q4 5 9.5 7t11.5 2t11.5 -2t9.5 -7q9 -8 9 -20.5t-9 -21.5zM512 235q-29 0 -49 -20.5
t-20 -49.5v-172q0 -29 20 -49.5t49 -20.5t49 20.5t20 49.5v172q0 29 -20 49.5t-49 20.5zM542 -7q0 -13 -9 -21.5t-21 -8.5t-21 8.5t-9 21.5v172q0 13 9 21.5t21 8.5t21 -8.5t9 -21.5v-172zM874 171l-122 123q-20 19 -49.5 19t-48.5 -19q-21 -21 -21 -49.5t21 -49.5l122 -122
q10 -10 22.5 -15t26.5 -5t26.5 5t22.5 15t15 22.5t5 26.5t-5 27t-15 22zM846 101q-8 -8 -21 -8t-21 8l-122 122q-9 9 -9 21.5t9 21.5q4 4 9.5 6t11.5 2t11.5 -2t9.5 -7l122 -122q4 -4 6.5 -9.5t2.5 -11.5t-2.5 -11.5t-6.5 -9.5zM955 505h-173q-29 0 -49.5 -20.5t-20.5 -49.5
t20.5 -49t49.5 -20h173q28 0 48.5 20t20.5 49t-20.5 49.5t-48.5 20.5zM955 405h-173q-13 0 -21.5 9t-8.5 21q0 13 8.5 21.5t21.5 8.5h173q12 0 20.5 -8.5t8.5 -21.5q0 -12 -8.5 -21t-20.5 -9zM874 797q-20 20 -49 20t-49 -20l-122 -122q-21 -20 -21 -49t21 -49q9 -10 22 -15
t27 -5t26.5 5t22.5 15l122 122q10 10 15 22.5t5 26.5t-5 26.5t-15 22.5zM846 727l-122 -122q-9 -9 -21.5 -9t-20.5 9q-9 9 -9 21t9 21l122 122q4 4 9.5 6.5t11.5 2.5t11.5 -2.5t9.5 -6.5t6.5 -9.5t2.5 -11.5t-2.5 -11.5t-6.5 -9.5z" />
    <glyph glyph-name="uniE9AF" unicode="&#xf9af;" 
d="M839 581q-37 48 -85.5 84t-106.5 55l-1 1l-1 4v83h25q21 0 35.5 14.5t14.5 35.5v40q0 20 -14.5 34.5t-35.5 14.5h-316q-21 0 -35.5 -14.5t-14.5 -34.5v-40q0 -21 14.5 -35.5t35.5 -14.5h25v-84q0 -2 -2 -3l-2 -1q-57 -20 -105 -55.5t-85 -83.5q-41 -54 -62 -117t-21 -131
q0 -85 32 -159q33 -75 88.5 -130.5t130.5 -88.5q74 -32 159 -32t159 32q75 33 130.5 88.5t88.5 130.5q32 74 32 159q0 68 -21 131t-62 117zM410 680l15 4l1 1l2 4v164q0 1 -1.5 2.5t-3.5 1.5h-67l-2 1l-1 1v37q0 2 1 2h316l1 -2v-38l-1 -1h-68q-4 0 -5 -2t-1 -5v-160
q0 -4 2 -5l2 -1l14 -4q67 -20 120.5 -62.5t87.5 -100.5q1 -2 1 -5t-7 -3h-605q-10 0 -10 4t2 6q34 57 87.5 99t119.5 62zM512 -28q-75 0 -140 28q-66 29 -115 78t-78 115q-28 66 -28 140q0 32 4 58.5t15 55.5l2 4l7 4h662q7 0 9.5 -2t3.5 -4q9 -27 14 -56.5t5 -59.5
q0 -74 -28 -140q-29 -66 -78 -115t-115 -78q-65 -28 -140 -28zM404 285q0 -35 -25 -60t-61 -25q-35 0 -60 25t-25 60t25 60t60 25q36 0 61 -25t25 -60zM530 147q0 -23 -16.5 -39.5t-39.5 -16.5t-39.5 16.5t-16.5 39.5t16.5 39.5t39.5 16.5t39.5 -16.5t16.5 -39.5z" />
    <glyph glyph-name="uniE9B0" unicode="&#xf9b0;" 
d="M311 -77q-2 0 -4 0.5t-4 1.5q-5 3 -6.5 8.5t0.5 10.5l161 445l-195 56q-4 1 -7 4t-4 6q-1 4 0 8t3 7l397 472q4 4 9.5 5t9.5 -2q5 -2 7 -7t1 -11l-115 -397l197 -56q4 -1 7 -3.5t4 -6.5t0 -8t-3 -7l-446 -520q-2 -3 -5.5 -4.5t-6.5 -1.5zM294 468l189 -53q3 -1 5.5 -3
t4.5 -5q1 -3 1 -6.5t-1 -6.5l-138 -380l375 437l-189 54q-3 1 -5.5 2.5t-3.5 4.5q-2 3 -2.5 6t0.5 6l99 342z" />
    <glyph glyph-name="uniE9B1" unicode="&#xf9b1;" 
d="M801 596q-3 5 -6.5 7.5t-9.5 2.5h-201l200 316q2 3 2 8t-2 9q-3 4 -7 6t-9 2h-273q-5 0 -9 -2t-6 -6l-256 -512q-3 -4 -3 -9t3 -8q2 -4 6.5 -6.5t8.5 -2.5h176l-191 -456q-3 -5 -0.5 -10.5t7.5 -9.5q1 -1 3.5 -1.5t4.5 -0.5q4 0 7.5 1.5t6.5 3.5l546 649q3 4 3.5 9
t-1.5 10zM299 38l157 375q1 4 1 8t-3 7q-2 3 -5.5 5t-7.5 2h-174l239 478h232l-202 -316q-2 -4 -2 -8.5t2 -8.5q3 -4 6.5 -6t9.5 -2h198z" />
    <glyph glyph-name="uniE9B2" unicode="&#xf9b2;" 
d="M877 270l-95 -87v323q0 57 -22 107q-21 50 -58.5 87.5t-87.5 58.5q-50 22 -107 22t-107 -22q-50 -21 -87.5 -58.5t-58.5 -87.5q-22 -50 -22 -107v-347h25q1 6 1 13v334q0 51 20 97q19 45 53 79t79 54q46 19 97 19q52 0 97 -19q46 -20 79.5 -54t53.5 -79t20 -97v-322
l-87 86l-18 -18l117 -117l126 115z" />
    <glyph glyph-name="uniE9B3" unicode="&#xf9b3;" 
d="M0 690l512 -510l512 510h-1024z" />
    <glyph glyph-name="uniE9B4" unicode="&#xf9b4;" 
d="M350 357l-26 -25q-3 -3 -4.5 -6.5t-1.5 -6.5v-11q0 -8 5.5 -13.5t13.5 -5.5h154q8 0 13.5 5.5t5.5 13.5v14q0 7 -5.5 12.5t-13.5 5.5h-85l2 3q42 40 68.5 74.5t26.5 75.5q0 33 -22 60.5t-70 27.5q-21 0 -41 -6.5t-36 -18.5q-5 -4 -6.5 -10.5t0.5 -12.5l5 -10q2 -4 5 -6.5
t7 -3.5q4 -2 8 -1t8 3q10 8 21 11.5t22 3.5q21 0 31.5 -10.5t10.5 -30.5q-1 -28 -24.5 -57t-71.5 -75zM623 577q-5 0 -9 -2t-6 -6l-115 -165q-2 -2 -3 -5t-1 -5v-14q0 -7 5.5 -12.5t13.5 -5.5h105v-54q0 -8 5.5 -13.5t13.5 -5.5h18q7 0 12.5 5.5t5.5 13.5v54h19
q8 0 13.5 5.5t5.5 12.5v13q0 7 -5.5 12.5t-13.5 5.5h-19v147q0 8 -5.5 13.5t-12.5 5.5h-27zM613 411h-57l28 40l29 44v-84zM513 4q-83 0 -156 32q-73 31 -127.5 85.5t-85.5 127.5q-32 73 -32 156q0 78 29 148q28 70 77.5 123.5t115.5 87.5q67 33 144 40v-64q0 -3 1.5 -6
t4.5 -5q2 0 3.5 -0.5t2.5 -0.5q2 0 3.5 0.5t3.5 1.5l145 97q3 2 4 4.5t1 6.5q0 3 -1 5.5t-4 4.5l-145 97q-3 2 -6.5 2t-6.5 -1q-3 -2 -4.5 -5t-1.5 -6v-50q-94 -6 -175 -47q-82 -40 -142.5 -104.5t-94.5 -148.5q-35 -85 -35 -180q0 -100 38 -187q38 -88 103.5 -153.5
t152.5 -103.5q88 -38 188 -38q46 0 90 9q45 8 87 24.5t80 41.5q39 24 72 56l-55 59q-56 -53 -127 -81t-147 -28zM924 656q-13 20 -27.5 39.5t-30.5 36.5l-59 -55q13 -15 25 -30.5t23 -32.5zM910 459l80 11q-3 24 -8.5 47.5t-13.5 45.5l-77 -26q7 -19 11.5 -38.5t7.5 -39.5z
M789 800q-20 13 -40.5 25t-42.5 21l-33 -74q18 -8 35.5 -17.5t33.5 -21.5zM822 151l63 -52q15 18 28.5 38t24.5 41l-72 39q-9 -18 -20 -34.5t-24 -31.5zM912 374q-1 -20 -4.5 -39.5t-9.5 -38.5l78 -22q7 23 11 46.5t6 47.5z" />
    <glyph glyph-name="uniE9B5" unicode="&#xf9b5;" 
d="M866 655q-2 12 -11 19.5t-21 7.5h-182v75q0 57 -41 98t-99 41t-99 -41t-41 -98v-75h-182q-12 0 -21 -7.5t-11 -19.5l-106 -643q-2 -7 0 -14t7 -12t11 -8t13 -3h858q14 0 23.5 9.5t9.5 22.5q0 3 -0.5 5.5t-1.5 5.5zM437 757q0 31 22 52.5t53 21.5t53 -21.5t22 -52.5v-75
h-150v75zM121 39l97 578h154v-182q0 -13 9.5 -22.5t23.5 -9.5t23 9.5t9 22.5v182h150v-182q0 -13 9 -22.5t23 -9.5t23.5 9.5t9.5 22.5v182h155l96 -578h-782z" />
    <glyph glyph-name="uniE9B6" unicode="&#xf9b6;" 
d="M1009 629q-3 2 -73.5 31.5t-192.5 52.5l-7 27q-12 53 -54 86.5t-96 33.5h-148q-54 0 -96 -33.5t-54 -86.5l-7 -27q-122 -23 -192.5 -52.5t-73.5 -31.5q-7 -4 -11 -10.5t-4 -14.5v-334q0 -50 19 -94q19 -45 52 -78t77 -52t95 -19q12 0 20 8.5t8 20.5q0 11 -8 19.5t-20 8.5
q-77 0 -131.5 54.5t-54.5 131.5v316q25 12 90.5 35t162.5 39q8 2 14 8t8 14l11 45q8 33 34.5 54.5t60.5 21.5h148q34 0 60.5 -21t34.5 -55l11 -45q2 -8 8 -14t14 -8q97 -16 162.5 -39t90.5 -35v-316q0 -77 -54.5 -131.5t-131.5 -54.5q-12 0 -20 -8.5t-8 -19.5q0 -12 8 -20.5
t20 -8.5q50 0 95 19q44 19 77 52t52 78q19 44 19 94v334q0 8 -4 14.5t-11 10.5zM93 687h4l5 1q22 8 45.5 14.5t47.5 11.5q11 3 17 13t4 21q-3 12 -13 18t-21 3q-25 -6 -50 -12.5t-48 -14.5q-11 -4 -16.5 -14.5t-1.5 -21.5q3 -9 10.5 -14t16.5 -5zM512 664q-67 0 -127 -26
q-59 -26 -103.5 -70t-70.5 -104q-25 -59 -25 -127q0 -67 25 -127q26 -59 70.5 -103.5t103.5 -69.5q60 -26 127 -26q68 0 127 26q59 25 103.5 69.5t70.5 103.5q25 60 25 127q0 68 -25 127q-26 60 -70.5 104t-103.5 70t-127 26zM512 68q-56 0 -105 21t-85.5 57.5t-57.5 85.5
t-21 105t21 105t57.5 85.5t85.5 58.5q49 21 105 21t105 -21t85.5 -58t57.5 -86q22 -49 22 -105q0 -55 -22 -105q-21 -49 -57.5 -85.5t-85.5 -57.5t-105 -21z" />
    <glyph glyph-name="uniE9B7" unicode="&#xf9b7;" 
d="M809 673l-1 31q-1 32 -2 70t-2 69q-1 32 -1 33q-1 3 -1.5 6t-1.5 5q-3 7 -8.5 12t-12.5 8l-59 23q-7 3 -14.5 2.5t-13.5 -3.5q-7 -3 -12 -8t-8 -12l-41 -106q-5 2 -9.5 2.5t-9.5 1.5v40q0 41 -29.5 70.5t-70.5 29.5t-70.5 -29.5t-29.5 -70.5v-40q-5 -1 -9.5 -1.5
t-9.5 -2.5l-41 106q-3 7 -8 12t-12 8q-6 3 -13.5 3.5t-14.5 -2.5l-59 -23q-7 -3 -12.5 -8t-8.5 -12q-1 -2 -1.5 -5t-1.5 -5q0 -1 -1 -33t-2 -70t-2 -70l-1 -32q-19 -31 -29.5 -68t-10.5 -77v-542q0 -25 18.5 -43.5t43.5 -18.5h550q25 0 43.5 18.5t18.5 43.5v542
q0 40 -10.5 77t-29.5 69zM774 719q-4 5 -9.5 10t-10.5 10l18 48zM703 897q0 2 1.5 2.5t3.5 -0.5l60 -23q1 0 1.5 -0.5t0.5 -1.5v-3l-43 -111q-15 11 -31 19.5t-33 14.5zM512 914q25 0 44 -16t22 -40q-13 12 -30 18.5t-36 6.5t-36 -6.5t-30 -18.5q3 24 22 40t44 16zM573 811
h-122q2 5 5.5 10t7.5 10q10 9 22.5 14t25.5 5q20 0 36.5 -10.5t24.5 -28.5zM254 874q0 1 0.5 1.5t1.5 0.5l60 23q2 1 3.5 0.5t1.5 -2.5l40 -103q-17 -7 -33 -15t-31 -19l-43 111v3zM252 787l18 -48q-5 -5 -10.5 -10t-10.5 -11zM816 -15q0 -12 -8.5 -20.5t-20.5 -8.5h-550
q-12 0 -20.5 8.5t-8.5 20.5v542q0 52 20 98t54 80t80 54q45 19 97 19h106q52 0 97 -19q46 -20 80 -54t54 -80t20 -98v-542zM290 393q-20 0 -34 -14.5t-14 -33.5v-309q0 -20 14 -34t34 -14h444q20 0 34 14t14 34v309q0 19 -14 33.5t-34 14.5h-444zM734 20h-444
q-7 0 -11.5 4.5t-4.5 11.5v206h413v-38h33v38h30v-206q0 -7 -4.5 -11.5t-11.5 -4.5zM750 345v-71h-476v71q0 6 4.5 10.5t11.5 4.5h444q7 0 11.5 -4.5t4.5 -10.5zM616 711h-208v-94h208v94zM583 650h-142v28h142v-28z" />
    </font>
</defs>
</svg>
