<?xml version="1.0" standalone="no"?>
<!DOCTYPE svg PUBLIC "-//W3C//DTD SVG 1.1//EN" "http://www.w3.org/Graphics/SVG/1.1/DTD/svg11.dtd" >
<svg xmlns="http://www.w3.org/2000/svg" xmlns:xlink="http://www.w3.org/1999/xlink" version="1.1">
<metadata>
Created by FontForge 20201107 at Sat Jul 31 04:32:51 2021
 By Unknown
</metadata>
<defs>
<font id="jkiticon" horiz-adv-x="1024" >
  <font-face 
    font-family="jkiticon"
    font-weight="400"
    font-stretch="normal"
    units-per-em="1024"
    panose-1="2 0 5 3 0 0 0 0 0 0"
    ascent="960"
    descent="-64"
    bbox="-3 -77 3599 963"
    underline-thickness="0"
    underline-position="0"
    unicode-range="U+F002-F95F"
  />
<missing-glyph 
 />
    <glyph glyph-name=".notdef" 
 />
    <glyph glyph-name="fl" unicode="&#xf002;" 
d="M811 43h-598q-44 0 -75 31t-31 75v598q0 44 31 75t75 31h598q21 0 41 -8.5t34 -22.5t22.5 -34t8.5 -41v-598q0 -44 -31 -75t-75 -31zM213 811q-17 0 -32 -8.5t-23.5 -23.5t-8.5 -32v-598q0 -26 19 -45t45 -19h598q26 0 45 19t19 45v598q0 17 -8.5 32t-23.5 23.5t-32 8.5
h-598zM427 256h-128q-9 0 -15.5 6.5t-6.5 14.5v384q0 9 6.5 15.5t15.5 6.5h128q8 0 14.5 -6.5t6.5 -15.5v-384q0 -2 -0.5 -4.5t-1.5 -4.5t-2.5 -4t-3.5 -3.5t-4 -2.5t-4.5 -1.5t-4.5 -0.5zM320 299h85v341h-85v-341zM725 427h-128q-8 0 -14.5 6t-6.5 15v213q0 9 6.5 15.5
t14.5 6.5h128q9 0 15.5 -6.5t6.5 -15.5v-213q0 -9 -6.5 -15t-15.5 -6zM619 469h85v171h-85v-171z" />
    <glyph glyph-name="trending-down-line" unicode="&#xf003;" 
d="M981 171q-9 0 -15 6l-390 390l-198 -198q-7 -6 -15.5 -6t-14.5 6l-320 320q-7 6 -7 15t6.5 15t15.5 6t15 -6l305 -305l198 198q2 2 4.5 3.5t5 2.5t5.5 1t5.5 -1t5 -2.5t4.5 -3.5l405 -405q7 -6 7 -15t-7 -15q-3 -3 -6.5 -4.5t-8.5 -1.5zM981 171h-256q-5 0 -10 2.5
t-8 7.5t-3 11q0 9 6.5 15t14.5 6h235v235q0 9 6.5 15t15 6t15 -6t6.5 -15v-256q0 -9 -6.5 -15t-15.5 -6z" />
    <glyph glyph-name="trending-up-line" unicode="&#xf004;" 
d="M43 171q-9 0 -15.5 6t-6.5 15t7 15l320 320q4 4 9.5 5.5t11 0t9.5 -5.5l198 -198l390 390q7 6 15.5 6t15 -6t6.5 -15t-7 -15l-405 -405q-6 -7 -15 -7t-15 7l-198 198l-305 -305q-2 -2 -4.5 -3.5t-5.5 -2t-5 -0.5zM981 427q-8 0 -14.5 6t-6.5 15v235h-235q-8 0 -14.5 6
t-6.5 15q0 6 3 11t8 7.5t10 2.5h256q9 0 15.5 -6t6.5 -15v-256q0 -6 -3 -11t-8 -7.5t-11 -2.5z" />
    <glyph glyph-name="triangle-line" unicode="&#xf005;" 
d="M151 43q-14 0 -27.5 3.5t-25.5 10.5q-38 22 -49.5 64.5t10.5 81.5l362 603q13 23 36 36q37 23 80 12.5t66 -48.5l362 -603q7 -12 10.5 -25.5t3.5 -26.5q1 -45 -30 -76.5t-75 -31.5h-723zM457 784l-361 -603q-8 -16 -8.5 -32t8.5 -31t24 -24q7 -4 15 -6.5t16 -2.5h722
q27 1 45.5 20t17.5 45q0 8 -2 16t-6 15l-361 603q-7 11 -17 18.5t-23 10.5q-6 2 -12.5 2t-12.5 -1t-12 -3t-11 -5q-7 -4 -12.5 -9.5t-9.5 -12.5z" />
    <glyph glyph-name="truck-line" unicode="&#xf006;" 
d="M683 256h-640q-9 0 -15.5 6.5t-6.5 14.5v555q0 4 2 8t4.5 7t6.5 4.5t9 1.5h640q8 0 14.5 -6t6.5 -15v-555q0 -8 -6.5 -14.5t-14.5 -6.5zM64 299h597v512h-597v-512zM981 256h-298q-4 0 -7 1t-6 3t-5 4.5t-3 6t-1 6.5v342q0 4 2 8t4.5 7t6.5 4.5t9 1.5h170q9 0 15 -6
l128 -128q7 -7 7 -15v-214q0 -9 -6.5 -15t-15.5 -6zM704 299h256v183l-116 115h-140v-298zM235 43q-53 0 -90.5 37.5t-37.5 90.5t37.5 90.5t90.5 37.5t90.5 -37.5t37.5 -90.5t-37.5 -90.5t-90.5 -37.5zM235 256q-23 0 -43 -11.5t-31.5 -31t-11.5 -42.5q0 -36 25 -61
t60.5 -25t60.5 25t25 60.5t-25 60.5t-60 25zM789 43q-53 0 -90.5 37.5t-37.5 90.5t37.5 90.5t90.5 37.5t90.5 -37.5t37.5 -90.5t-37.5 -90.5t-90.5 -37.5zM789 256q-23 0 -42.5 -11.5t-31 -31t-11.5 -42.5q0 -14 4.5 -27t12 -23.5t18 -18.5t23.5 -12.5t27 -4.5q23 0 43 11.5
t31.5 31.5t11.5 43q0 35 -25 60t-61 25z" />
    <glyph glyph-name="tv-line" unicode="&#xf007;" 
d="M853 0h-682q-44 0 -75.5 31.5t-31.5 75.5v469q0 44 31.5 75.5t75.5 31.5h682q44 0 75.5 -31.5t31.5 -75.5v-469q0 -44 -31.5 -75.5t-75.5 -31.5zM171 640q-27 0 -45.5 -19t-18.5 -45v-469q0 -27 18.5 -45.5t45.5 -18.5h682q27 0 45.5 18.5t18.5 45.5v469q0 26 -18.5 45
t-45.5 19h-682zM512 640q-9 0 -15 6l-213 214q-7 6 -7 15t6.5 15t15.5 6t15 -6l198 -198l198 198q7 6 15.5 6t15 -6t6.5 -15t-7 -15l-213 -214q-6 -6 -15 -6z" />
    <glyph glyph-name="twitch-line" unicode="&#xf008;" 
d="M341 0q-4 0 -8 2q-13 5 -13 19v150h-192q-9 0 -15 6t-6 15v683q0 8 6 14.5t15 6.5h768q6 0 11 -3t7.5 -8t2.5 -10v-512q0 -9 -6 -15l-171 -171q-6 -6 -15 -6h-204l-165 -165q-3 -3 -6.5 -4.5t-8.5 -1.5zM149 213h192q9 0 15.5 -6t6.5 -15v-119l134 134q6 6 15 6h204
l159 159v481h-726v-640zM682.5 469q-5.5 0 -10.5 3t-8 8t-3 11v170q0 5 2 9t4.5 6.5t6.5 4.5t9 2q8 0 14.5 -6.5t6.5 -15.5v-170q0 -6 -3 -11t-8 -8t-10.5 -3zM469 469q-5 0 -10 3t-8 8t-3 11v170q0 5 1.5 9t4.5 6.5t7 4.5t8 2q9 0 15.5 -6.5t6.5 -15.5v-170q0 -17 -17 -21
q-3 -1 -5 -1z" />
    <glyph glyph-name="twitter-line" unicode="&#xf009;" 
d="M353 45q-166 0 -321 86q-14 8 -10 24q2 7 8 11.5t14 4.5q136 -6 253 61q-72 38 -121 90t-71 102t-30 107.5t-4.5 100t13.5 85t15.5 58t8.5 23.5q2 3 4.5 6t6 4.5t7.5 2.5q12 1 19 -9q40 -57 94.5 -98t118.5 -63t133 -24v22q-1 47 18 89.5t55 73.5q63 55 147 51.5
t143 -62.5q31 10 59.5 25t55.5 33q12 9 24.5 0.5t8.5 -22.5q-22 -91 -87 -159q1 -7 1.5 -14t0.5 -14q0 -170 -71.5 -305t-201.5 -212q-133 -78 -291 -78zM129 132q125 -51 254.5 -43.5t238.5 71.5q80 47 136.5 119t86.5 164t30 197q0 5 -0.5 10.5t-1 10.5t-1.5 10
q-2 12 6 20q10 10 19 20.5t17 22t15 24t13 25.5q-14 -8 -28.5 -14.5t-29.5 -12t-30 -10.5q-5 -1 -9 -0.5t-7.5 2.5t-6.5 5q-46 53 -116 57.5t-123 -41.5q-60 -51 -59 -130v-43q0 -9 -6 -15t-14 -6q-73 -2 -142.5 17.5t-129.5 58.5t-106 94q-4 -12 -7.5 -25t-7 -30.5
t-5.5 -34.5t-3 -38.5t0 -40.5q11 -221 238 -322q11 -5 12.5 -17.5t-9.5 -19.5q-102 -70 -224 -85z" />
    <glyph glyph-name="type-line" unicode="&#xf00a;" 
d="M853.5 640q-8.5 0 -15 6.5t-6.5 14.5v107h-640v-107q0 -8 -6.5 -14.5t-15 -6.5t-15 6.5t-6.5 14.5v128q0 9 6.5 15.5t15.5 6.5h682q5 0 9 -2t6.5 -4.5t4.5 -6.5t2 -9v-128q0 -8 -6.5 -14.5t-15 -6.5zM640 85h-256q-6 0 -11 3t-7.5 8t-2.5 11q0 8 6 14.5t15 6.5h256
q4 0 8 -1.5t7 -4.5t4.5 -7t1.5 -8q0 -9 -6 -15.5t-15 -6.5zM512 85q-6 0 -11 3t-7.5 8t-2.5 11v682q0 6 2.5 11t7.5 8t11 3q4 0 8 -2t7 -4.5t4.5 -6.5t1.5 -9v-682q0 -9 -6 -15.5t-15 -6.5z" />
    <glyph glyph-name="umbrella-line" unicode="&#xf00b;" 
d="M640 0q-62 0 -105.5 44t-43.5 105v278h-448q-5 0 -9 1.5t-7 5.5q-6 7 -6 16q12 116 72.5 213.5t158 158.5t213.5 72q80 7 157.5 -10.5t142 -57t115.5 -95.5t83 -128.5t40 -152.5q1 -9 -5.5 -16t-16.5 -7h-448v-278q0 -44 31.5 -75t75.5 -31t75.5 31t31.5 75q0 9 6 15.5
t15 6.5q4 0 8 -2t7 -4.5t4.5 -6.5t1.5 -9q0 -61 -43.5 -105t-105.5 -44zM957 469q-17 116 -87.5 208t-176.5 138.5t-224 35.5q-154 -14 -267 -121.5t-135 -260.5h890z" />
    <glyph glyph-name="underline-line" unicode="&#xf00c;" 
d="M512 256q-75 0 -139 37t-101 101t-37 139v299q0 4 1.5 8t4.5 7t7 4.5t8 1.5q9 0 15 -6t6 -15v-299q0 -97 69 -165.5t166 -68.5q64 0 118 31.5t85.5 85.5t31.5 117v299q0 4 1.5 8t4.5 7t7 4.5t8 1.5t8 -1.5t7 -4.5t4.5 -7t1.5 -8v-299q0 -56 -22 -107.5t-59 -88.5
t-88.5 -59t-107.5 -22zM853 43h-682q-9 0 -15.5 6t-6.5 15q0 6 3 11t8 7.5t11 2.5h682q9 0 15.5 -6t6.5 -15q0 -3 -1 -6.5t-3 -6t-5 -4.5t-6 -3t-7 -1z" />
    <glyph glyph-name="unlock-line" unicode="&#xf00d;" 
d="M811 0h-598q-44 0 -75 31.5t-31 75.5v298q0 44 31 75.5t75 31.5h598q29 0 53.5 -14.5t38.5 -39t14 -53.5v-298q0 -44 -31 -75.5t-75 -31.5zM213 469q-17 0 -32 -8.5t-23.5 -23t-8.5 -32.5v-298q0 -27 19 -45.5t45 -18.5h598q26 0 45 18.5t19 45.5v298q0 27 -19 45.5
t-45 18.5h-598zM299 469q-6 0 -11 3t-8 8t-3 11v170q0 97 69 166t166 69q83 0 148 -53t82 -135q1 -5 -1 -10.5t-6 -9.5t-10 -5q-4 -1 -8 0t-7.5 3t-6 5.5t-3.5 8.5q-13 67 -66.5 110.5t-121.5 43.5q-80 -1 -136 -57t-56 -136v-170q0 -9 -6 -15.5t-15 -6.5z" />
    <glyph glyph-name="upload-cloud-line" unicode="&#xf00e;" 
d="M512 43q-9 0 -15 6t-6 15v384q0 9 6 15t15 6q3 0 6.5 -1t6 -3t4.5 -4.5t3 -6t1 -6.5v-384q0 -4 -1.5 -8t-4.5 -7t-7 -4.5t-8 -1.5zM870 154q-13 0 -19 11q-2 6 -2 11t3 10t8 8q34 19 57.5 48.5t34.5 65.5q23 77 -16 147q-25 46 -70 73t-98 27h-54q-7 0 -13 4.5t-7 11.5
q-16 62 -54.5 112.5t-93.5 82.5q-37 22 -77.5 33t-82 11.5t-82.5 -10.5q-63 -16 -114.5 -55t-81.5 -92t-41 -116t7 -127q19 -74 70 -131q6 -7 5.5 -16t-7 -14.5t-15.5 -5t-15 6.5q-58 66 -79 150q-25 95 1 188t95 161t164 93q70 18 141 8t134 -47q29 -17 54.5 -39.5
t46 -48.5t36 -55.5t25.5 -62.5h38q64 0 119.5 -32.5t86.5 -89.5q22 -41 27 -87.5t-8 -91.5q-9 -30 -25 -56t-38 -47t-50 -36q-5 -3 -10 -3zM683 256q-9 1 -15 6l-156 156l-156 -156q-2 -2 -5 -3.5t-6.5 -2t-6.5 0t-6 2t-6 3.5q-6 6 -6 15t6 15l171 171q6 6 15 6t15 -6
l171 -171q6 -6 6 -15t-6 -15t-15 -6z" />
    <glyph glyph-name="upload-line" unicode="&#xf00f;" 
d="M811 43h-598q-44 0 -75 31t-31 75v171q0 9 6 15t15 6t15 -6t6 -15v-171q0 -26 19 -45t45 -19h598q26 0 45 19t19 45v171q0 9 6 15t15 6q6 0 11 -2.5t7.5 -7.5t2.5 -11v-171q0 -44 -31 -75t-75 -31zM725 597q-9 0 -15 7l-198 198l-198 -198q-2 -2 -4 -3.5t-4.5 -2t-4.5 -1
t-4.5 0t-4.5 1t-4.5 2t-3.5 3.5q-7 6 -7 14.5t7 15.5l213 213q2 2 4.5 3.5t5 2t5.5 0.5t5.5 -0.5t5 -2t4.5 -3.5l213 -213q2 -2 3.5 -4.5t2.5 -5.5t1 -5.5t-1 -5t-2.5 -5t-3.5 -4.5q-6 -7 -15 -7zM512 299q-6 0 -11 2.5t-7.5 7.5t-2.5 11v512q0 4 1.5 8t4.5 7t7 4.5t8 1.5
t8 -1.5t7 -4.5t4.5 -7t1.5 -8v-512q0 -9 -6 -15t-15 -6z" />
    <glyph glyph-name="user-check-line" unicode="&#xf010;" 
d="M683 43q-9 0 -15.5 6t-6.5 15v85q0 41 -20 75.5t-54.5 54.5t-74.5 20h-299q-61 0 -105 -44t-44 -106v-85q0 -9 -6 -15t-15 -6t-15.5 6t-6.5 15v85q0 39 15.5 74.5t41 61.5t61 41t74.5 15h299q79 0 135.5 -56t56.5 -136v-85q0 -4 -1.5 -8t-4.5 -7t-7 -4.5t-8 -1.5z
M363 469q-80 0 -136 56.5t-56 136t56 135.5t135.5 56t136 -56t56.5 -136q0 -26 -7 -50.5t-19.5 -46t-30 -39t-39 -30t-46 -19.5t-50.5 -7zM362.5 811q-61.5 0 -105.5 -44t-44 -105.5t44 -105.5t106 -44q40 0 74.5 20t54.5 54.5t20 74.5q0 62 -44 106t-105.5 44zM810.5 384
q-4.5 0 -8 1.5t-6.5 4.5l-86 86q-6 6 -6 15t6.5 15t15 6t14.5 -6l71 -70l155 155q4 4 9.5 5.5t11 0t9.5 -5.5q7 -6 7 -15t-7 -15l-170 -171q-3 -3 -7 -4.5t-8.5 -1.5z" />
    <glyph glyph-name="user-line" unicode="&#xf011;" 
d="M853 43q-8 0 -14.5 6t-6.5 15v85q0 41 -20 75.5t-54.5 54.5t-74.5 20h-342q-61 0 -105 -44t-44 -106v-85q0 -4 -1.5 -8t-4.5 -7t-7 -4.5t-8 -1.5q-9 0 -15.5 6t-6.5 15v85q0 52 26 96.5t70 70t96 25.5h342q79 0 135.5 -56t56.5 -136v-85q0 -4 -2 -8t-4.5 -7t-6.5 -4.5
t-9 -1.5zM512 469q-52 0 -96.5 26t-70 70t-25.5 96q0 80 56.5 136t135.5 56t135.5 -56t56.5 -135.5t-56.5 -136t-135.5 -56.5zM512 811q-62 0 -105.5 -44t-43.5 -105.5t43.5 -105.5t105.5 -44t105.5 44t43.5 105q0 41 -20 75.5t-54.5 54.5t-74.5 20z" />
    <glyph glyph-name="user-minus-line" unicode="&#xf012;" 
d="M683 43q-9 0 -15.5 6t-6.5 15v85q0 41 -20 75.5t-54.5 54.5t-74.5 20h-299q-61 0 -105 -44t-44 -106v-85q0 -9 -6 -15t-15 -6t-15.5 6t-6.5 15v85q0 39 15.5 74.5t41 61.5t61 41t74.5 15h299q79 0 135.5 -56t56.5 -136v-85q0 -4 -1.5 -8t-4.5 -7t-7 -4.5t-8 -1.5z
M363 469q-80 0 -136 56.5t-56 136t56 135.5t135.5 56t136 -56t56.5 -136q0 -26 -7 -50.5t-19.5 -46t-30 -39t-39 -30t-46 -19.5t-50.5 -7zM362.5 811q-61.5 0 -105.5 -44t-44 -105.5t44 -105.5t106 -44q40 0 74.5 20t54.5 54.5t20 74.5q0 62 -44 106t-105.5 44zM981 469
h-256q-5 0 -10 3t-8 8t-3 11q0 8 6.5 14.5t14.5 6.5h256q9 0 15.5 -6.5t6.5 -15t-6.5 -15t-15.5 -6.5z" />
    <glyph glyph-name="user-plus-line" unicode="&#xf013;" 
d="M683 43q-9 0 -15.5 6t-6.5 15v85q0 41 -20 75.5t-54.5 54.5t-74.5 20h-299q-61 0 -105 -44t-44 -106v-85q0 -9 -6 -15t-15 -6t-15.5 6t-6.5 15v85q0 39 15.5 74.5t41 61.5t61 41t74.5 15h299q79 0 135.5 -56t56.5 -136v-85q0 -4 -1.5 -8t-4.5 -7t-7 -4.5t-8 -1.5z
M363 469q-80 0 -136 56.5t-56 136t56 135.5t135.5 56t136 -56t56.5 -136q0 -26 -7 -50.5t-19.5 -46t-30 -39t-39 -30t-46 -19.5t-50.5 -7zM362.5 811q-61.5 0 -105.5 -44t-44 -105.5t44 -105.5t106 -44q40 0 74.5 20t54.5 54.5t20 74.5q0 62 -44 106t-105.5 44zM853 341
q-5 0 -10 3t-8 8t-3 11v256q0 8 6.5 14.5t15 6.5t15 -6.5t6.5 -14.5v-256q0 -9 -6.5 -15.5t-15.5 -6.5zM981 469h-256q-5 0 -10 3t-8 8t-3 11q0 8 6.5 14.5t14.5 6.5h256q9 0 15.5 -6.5t6.5 -15t-6.5 -15t-15.5 -6.5z" />
    <glyph glyph-name="user-x-line" unicode="&#xf014;" 
d="M683 43q-9 0 -15.5 6t-6.5 15v85q0 41 -20 75.5t-54.5 54.5t-74.5 20h-299q-61 0 -105 -44t-44 -106v-85q0 -9 -6 -15t-15 -6t-15.5 6t-6.5 15v85q0 39 15.5 74.5t41 61.5t61 41t74.5 15h299q79 0 135.5 -56t56.5 -136v-85q0 -4 -1.5 -8t-4.5 -7t-7 -4.5t-8 -1.5z
M363 469q-80 0 -136 56.5t-56 136t56 135.5t135.5 56t136 -56t56.5 -136q0 -26 -7 -50.5t-19.5 -46t-30 -39t-39 -30t-46 -19.5t-50.5 -7zM362.5 811q-61.5 0 -105.5 -44t-44 -105.5t44 -105.5t106 -44q40 0 74.5 20t54.5 54.5t20 74.5q0 62 -44 106t-105.5 44zM981 384
q-9 1 -15 6l-213 214q-6 6 -6 15t6 15t15 6t15 -6l213 -214q4 -3 5.5 -7t1.5 -8t-1.5 -8t-5.5 -7q-1 -1 -2.5 -2t-3 -1.5t-3 -1.5t-3 -1h-3.5zM768 384q-4 0 -8 1.5t-7 4.5q-6 7 -6 15.5t6 14.5l213 214q7 6 15.5 6t15 -6t6.5 -15t-7 -15l-213 -214q-7 -6 -15 -6z" />
    <glyph glyph-name="users-line" unicode="&#xf015;" 
d="M725 43q-8 0 -14.5 6t-6.5 15v85q0 41 -20 75.5t-54.5 54.5t-74.5 20h-342q-61 0 -105 -44t-44 -106v-85q0 -9 -6 -15t-15 -6t-15.5 6t-6.5 15v85q0 39 15.5 74.5t41 61.5t61 41t74.5 15h342q79 0 135.5 -56t56.5 -136v-85q0 -4 -2 -8t-4.5 -7t-6.5 -4.5t-9 -1.5z
M384 469q-79 0 -135.5 56.5t-56.5 136t56.5 135.5t135.5 56t135.5 -56t56.5 -135.5t-56.5 -136t-135.5 -56.5zM384 811q-62 0 -105.5 -44t-43.5 -105.5t43.5 -105.5t105.5 -44q40 0 74.5 20t54.5 54.5t20 74.5q0 62 -43.5 106t-105.5 44zM981.5 43q-8.5 0 -15 6t-6.5 15v85
q0 51 -31.5 91.5t-80.5 53.5q-9 2 -13.5 9.5t-2 16t10 13t16.5 2.5q42 -11 74.5 -38t51 -65.5t18.5 -82.5v-85q0 -9 -6.5 -15t-15 -6zM683 474q-8 0 -13.5 4.5t-7.5 11.5q-1 6 0.5 11.5t5.5 9.5t9 5q40 11 69 39.5t39 68.5q5 20 4.5 40t-5.5 38.5t-15 35t-23.5 30t-31 23.5
t-37.5 15q-8 2 -12.5 9.5t-2.5 16t9.5 13t16.5 2.5q37 -9 67.5 -32t50.5 -56q40 -68 20 -145q-8 -34 -28 -62.5t-48 -48t-62 -28.5q-1 0 -2.5 -0.5t-2.5 -0.5z" />
    <glyph glyph-name="video-line" unicode="&#xf016;" 
d="M981 213q-3 0 -6 1t-6 3l-299 214q-9 6 -9 17t9 17l299 214q5 3 11 3.5t11 -2.5q12 -6 12 -19v-426q0 -13 -12 -19q-4 -3 -10 -3zM719 448l241 -172v344zM597 128h-469q-29 0 -53.5 14.5t-39 39t-14.5 53.5v426q0 44 31.5 75.5t75.5 31.5h469q29 0 53.5 -14.5t39 -39
t14.5 -53.5v-426q0 -44 -31.5 -75.5t-75.5 -31.5zM128 725q-26 0 -45 -18.5t-19 -45.5v-426q0 -27 19 -45.5t45 -18.5h469q27 0 45.5 18.5t18.5 45.5v426q0 11 -3 20.5t-9 17.5t-14 14t-17.5 9t-20.5 3h-469z" />
    <glyph glyph-name="video-off-line" unicode="&#xf017;" 
d="M597 128h-469q-29 0 -53.5 14.5t-39 39t-14.5 53.5v426q0 44 31.5 75.5t75.5 31.5h85q9 0 15.5 -6t6.5 -15t-6.5 -15.5t-15.5 -6.5h-85q-26 0 -45 -18.5t-19 -45.5v-426q0 -27 19 -45.5t45 -18.5h469q27 0 45.5 18.5t18.5 45.5v42q0 9 6.5 15.5t15.5 6.5q5 0 10 -3t8 -8
t3 -11v-42q0 -44 -31.5 -75.5t-75.5 -31.5zM981 213q-5 0 -10 3t-8 8t-3 11v385l-222 -161q-3 -2 -5.5 -3t-5.5 -1t-6 0.5t-6 2t-5 3.5l-42 43q-7 6 -7 15v142q0 27 -18.5 45.5t-45.5 18.5h-142q-9 0 -15.5 6.5t-6.5 15t6.5 15t15.5 6.5h142q29 0 53.5 -14.5t39 -39
t14.5 -53.5v-133l24 -24l241 175q10 7 22 1t12 -19v-426q0 -17 -17 -21q-3 -1 -5 -1zM981 -43q-1 0 -3 0.5t-3.5 1l-3 1t-3 1.5t-2.5 3l-938 938q-7 7 -7 15.5t6.5 15t15.5 6.5t15 -7l938 -938q7 -6 7 -15t-7 -15q-6 -6 -15 -7z" />
    <glyph glyph-name="voicemail-line" unicode="&#xf018;" 
d="M235 256q-89 0 -151.5 62.5t-62.5 151t62.5 151t151.5 62.5q58 0 107 -28.5t77.5 -78t28.5 -107.5q0 -43 -17 -82.5t-45.5 -68t-68 -45.5t-82.5 -17zM235 640q-71 0 -121 -50t-50 -121q0 -46 23 -85.5t62 -62t86 -22.5q70 0 120 50t50 120q0 28 -8.5 54t-24.5 47
t-36.5 37t-47 24.5t-53.5 8.5zM789 256q-88 0 -150.5 62.5t-62.5 150.5q0 58 28.5 107.5t77.5 78t107 28.5t107.5 -28.5t78 -78t28.5 -107.5t-28.5 -107t-78 -77.5t-107.5 -28.5zM789 640q-34 0 -66 -13.5t-54.5 -36.5t-36 -54.5t-13.5 -66.5q0 -70 50 -120t120 -50
q35 0 66.5 13.5t54.5 36t36.5 54.5t13.5 66q0 47 -23 86t-62 62t-86 23zM789 256h-554q-9 0 -15.5 6.5t-6.5 14.5q0 6 3 11t8 8t11 3h554q9 0 15.5 -6.5t6.5 -15t-6.5 -15t-15.5 -6.5z" />
    <glyph glyph-name="volume-1-line" unicode="&#xf019;" 
d="M469 128q-1 0 -3 0.5t-3.5 1t-3.5 1.5t-3 2l-207 166h-164q-8 0 -14.5 6t-6.5 15v256q0 4 1.5 8t4.5 7t7 4.5t8 1.5h164l207 166q5 4 11 5t11.5 -2t9 -8t3.5 -11v-598q0 -13 -12 -19q-3 -1 -5 -1.5t-5 -0.5zM107 341h149q2 0 4.5 -0.5t4.5 -1.5l4 -2l179 -143v508
l-179 -143q-6 -4 -13 -4h-149v-214zM663 276q-4 0 -8 1.5t-7 4.5q-6 7 -6 15.5t6 14.5q37 37 50 86.5t0 99t-50 86.5q-6 6 -6 15t6 15t15 6t15 -6q34 -34 51.5 -77.5t17.5 -88t-17.5 -88.5t-51.5 -78q-6 -6 -15 -6z" />
    <glyph glyph-name="volume-2-line" unicode="&#xf01a;" 
d="M469 128q-1 0 -3 0.5t-3.5 1t-3.5 1.5t-3 2l-207 166h-164q-8 0 -14.5 6t-6.5 15v256q0 4 1.5 8t4.5 7t7 4.5t8 1.5h164l207 166q5 4 11 5t11.5 -2t9 -8t3.5 -11v-598q0 -13 -12 -19q-3 -1 -5 -1.5t-5 -0.5zM107 341h149q2 0 4.5 -0.5t4.5 -1.5l4 -2l179 -143v508
l-179 -143q-6 -4 -13 -4h-149v-214zM814 125q-9 0 -15.5 6.5t-6.5 15t7 14.5q46 47 75.5 105t38 120t0 124t-38 120t-75.5 105q-7 6 -7 15t6.5 15t15.5 6t15 -6q86 -86 116.5 -201.5t0 -231t-116.5 -201.5q-6 -6 -15 -6zM663 276q-4 0 -8 1.5t-7 4.5q-6 7 -6 15.5t6 14.5
q37 37 50 86.5t0 99t-50 86.5q-6 6 -6 15t6 15t15 6t15 -6q34 -34 51.5 -77.5t17.5 -88t-17.5 -88.5t-51.5 -78q-6 -6 -15 -6z" />
    <glyph glyph-name="volume-line" unicode="&#xf01b;" 
d="M469 128q-1 0 -3 0.5t-3.5 1t-3.5 1.5t-3 2l-207 166h-164q-8 0 -14.5 6t-6.5 15v256q0 4 1.5 8t4.5 7t7 4.5t8 1.5h164l207 166q5 4 11 5t11.5 -2t9 -8t3.5 -11v-598q0 -13 -12 -19q-3 -1 -5 -1.5t-5 -0.5zM107 341h149q2 0 4.5 -0.5t4.5 -1.5l4 -2l179 -143v508
l-179 -143q-6 -4 -13 -4h-149v-214z" />
    <glyph glyph-name="volume-x-line" unicode="&#xf01c;" 
d="M469 128q-1 0 -3 0.5t-3.5 1t-3.5 1.5t-3 2l-207 166h-164q-8 0 -14.5 6t-6.5 15v256q0 4 1.5 8t4.5 7t7 4.5t8 1.5h164l207 166q5 4 11 5t11.5 -2t9 -8t3.5 -11v-598q0 -13 -12 -19q-3 -1 -5 -1.5t-5 -0.5zM107 341h149q2 0 4.5 -0.5t4.5 -1.5l4 -2l179 -143v508
l-179 -143q-6 -4 -13 -4h-149v-214zM725 299q-9 0 -15 6q-2 2 -3 4l-2 4t-1 4.5v5t1 4.5l2 4t3 4l256 256q7 6 15.5 6t15 -6t6.5 -15t-7 -15l-256 -256q-6 -6 -15 -6zM981 299q-9 0 -15 6l-256 256q-2 2 -3.5 4.5t-2 5t-0.5 5.5t0.5 5.5t2 5t3.5 4.5q7 6 15.5 6t14.5 -6
l256 -256q7 -6 7 -15t-7 -15q-2 -2 -4.5 -3.5t-5 -2t-5.5 -0.5z" />
    <glyph glyph-name="watch-line" unicode="&#xf01d;" 
d="M512 128q-132 0 -226 94t-94 226t94 226t226 94t226 -94t94 -226t-94 -226t-226 -94zM512 725q-56 0 -107.5 -22t-88.5 -59t-59 -88.5t-22 -107.5q0 -115 81 -196t196 -81q56 0 107.5 22t88.5 59t59 88.5t22 107.5q0 115 -81 196t-196 81zM576 363q-9 0 -15 6l-64 64
q-2 1 -3 3l-2 4t-1 4v4v128q0 4 1.5 8t4.5 7t7 4.5t8 1.5t8 -1.5t7 -4.5t4.5 -7t1.5 -8v-119l58 -58q2 -2 3.5 -4.5t2 -5t0.5 -5.5t-0.5 -5.5t-2 -5t-3.5 -4.5q-3 -3 -7 -4.5t-8 -1.5zM419 -43q-42 0 -72 28t-34 69l-15 164q-1 9 4.5 15.5t14.5 7.5t16 -5t7 -14l15 -164
q3 -25 21 -41.5t43 -16.5h185q40 0 58 35q5 11 6 23l15 164q1 5 4 10t8 7.5t11 1.5q9 -1 14.5 -7.5t5.5 -15.5l-15 -164q-4 -41 -34.5 -69t-71.5 -28h-186zM320 655h-2q-9 1 -14.5 7.5t-5.5 15.5l15 164q2 20 11 38t23 31t33 20.5t39 7.5h186q42 0 72.5 -28t34.5 -69
l15 -164q0 -9 -5.5 -15.5t-14.5 -7.5q-6 0 -11 2t-8 7t-4 10l-15 164q-1 16 -10 29.5t-23 21t-31 7.5h-186q-25 0 -43 -16.5t-20 -41.5l-15 -164q-1 -8 -7 -13.5t-14 -5.5z" />
    <glyph glyph-name="wifi-line" unicode="&#xf01e;" 
d="M213 403q-10 0 -16 8q-4 4 -5 10t1 11t7 9q89 75 201.5 101t224.5 0t202 -101q4 -4 6 -9t1 -11t-5 -10q-5 -7 -14 -7.5t-16 4.5q-124 104 -286 104t-287 -104q-3 -2 -6.5 -3.5t-7.5 -1.5zM963 555q-8 0 -14 5q-61 54 -133.5 91.5t-148 55.5t-155.5 18t-155.5 -18
t-148 -55.5t-133.5 -91.5q-5 -4 -10.5 -5t-11 1t-8.5 6q-6 7 -5.5 15.5t6.5 14.5q98 86 220.5 131t245.5 45t245 -45t220 -131q5 -4 6.5 -9.5t0.5 -11t-5 -9.5q-3 -4 -7 -5.5t-9 -1.5zM660 251q-6 0 -12 4q-30 22 -65 33t-70.5 11t-71 -11t-65.5 -33q-7 -5 -15.5 -3.5
t-13.5 8.5q-4 5 -4.5 10.5t2 11t7.5 8.5q47 34 103.5 45.5t113 0t104.5 -45.5q7 -5 8.5 -13.5t-3.5 -16.5q-3 -4 -7.5 -6.5t-10.5 -2.5zM512 85q-5 0 -10 3t-8 8t-3 11q0 9 6 15t15 6t15.5 -6.5t6.5 -14.5q0 -5 -2 -9t-4.5 -6.5t-6.5 -4.5t-9 -2z" />
    <glyph glyph-name="wifi-off-line" unicode="&#xf01f;" 
d="M981 -43q-1 0 -3 0.5t-3.5 1l-3 1t-3 1.5t-2.5 3l-938 938q-7 7 -7 15.5t6.5 15t15.5 6.5t15 -7l938 -938q7 -6 7 -15t-7 -15q-6 -6 -15 -7zM811 403q-8 0 -14 5q-21 18 -44.5 33.5t-48.5 27.5q-8 4 -11 12.5t1 15.5q3 6 7.5 9t10 3.5t11.5 -2.5q55 -27 101 -66
q7 -6 8 -15t-5 -15q-6 -8 -16 -8zM213 403q-10 0 -16 8q-6 7 -5 15.5t8 14.5q101 84 230 107q9 1 16 -4t9 -14q1 -6 -1 -11t-6.5 -9t-10.5 -5q-118 -20 -210 -97q-6 -5 -14 -5zM963 555q-8 0 -14 5q-100 89 -228.5 131.5t-261.5 31.5q-9 0 -16 5.5t-7.5 14.5t5 15.5
t14.5 7.5q142 11 279 -34.5t244 -139.5q6 -6 6.5 -14.5t-5.5 -15.5q-3 -4 -7 -5.5t-9 -1.5zM61 555q-5 0 -9 1.5t-7 5.5q-6 6 -5.5 15t6.5 15q93 82 207 127q9 3 17 -0.5t11 -12t-0.5 -16.5t-11.5 -11q-108 -42 -194 -119q-6 -5 -14 -5zM660 251q-6 0 -12 4q-30 22 -65 33
t-70.5 11t-71 -11t-65.5 -33q-7 -5 -15.5 -3.5t-13.5 8.5q-4 5 -4.5 10.5t2 11t7.5 8.5q47 34 103.5 45.5t113 0t104.5 -45.5q7 -5 8.5 -13.5t-3.5 -16.5q-3 -4 -7.5 -6.5t-10.5 -2.5zM512 85q-5 0 -10 3t-8 8t-3 11q0 9 6 15t15 6t15.5 -6.5t6.5 -14.5q0 -5 -2 -9
t-4.5 -6.5t-6.5 -4.5t-9 -2z" />
    <glyph glyph-name="wind-line" unicode="&#xf020;" 
d="M598 85q-45 0 -76 32q-3 3 -4.5 7t-1.5 8t1.5 8t4.5 7q6 6 15 6t15 -6q19 -19 45.5 -19t45.5 18.5t19 45t-19 45.5q-17 17 -46 19h-512q-8 0 -14.5 6.5t-6.5 15t6.5 15t14.5 6.5h512q11 -1 21.5 -3t20 -6t18.5 -9.5t16 -13.5q31 -31 31 -75.5t-31 -75.5t-75 -31zM832 427
h-747q-4 0 -8 1.5t-7 4.5t-4.5 7t-1.5 8q0 6 3 11t8 7.5t10 2.5h747q35 0 60 25q5 5 9 10.5t7 11.5t5 12t3 13t1 14q0 8 -1.5 16.5t-4.5 16t-8 14.5t-11 13q-25 25 -60 25t-60 -25q-7 -6 -15.5 -6t-15 6t-6.5 15t6 15q25 25 58 33.5t66 0t57 -33.5q38 -37 38 -90.5
t-37.5 -90.5t-90.5 -37zM470 597h-385q-8 0 -14.5 6.5t-6.5 15.5q0 5 3 10t8 8t10 3h385q26 0 45 19t19 45.5t-19 44.5q-9 10 -21 14.5t-24.5 4.5t-24.5 -5t-21 -14q-6 -6 -15 -6t-15 6t-6 15t6 15q31 32 75.5 32t75.5 -31t31 -75.5t-31 -76t-75 -31.5z" />
    <glyph glyph-name="x-circle-line" unicode="&#xf021;" 
d="M512 0q-185 0 -316.5 131.5t-131.5 316.5t131.5 316.5t316.5 131.5t316.5 -131.5t131.5 -316.5t-131.5 -316.5t-316.5 -131.5zM512 853q-110 0 -203.5 -54t-147.5 -147.5t-54 -203.5q0 -82 32 -157t86.5 -129.5t129.5 -86.5t157 -32q110 0 203.5 54t147.5 147.5t54 203.5
q0 66 -20.5 128t-58 111.5t-87 87t-111.5 58t-128 20.5zM384 299q-9 0 -15 6t-6 15t6 15l256 256q6 6 15 6t15 -6t6 -15t-6 -15l-256 -256q-2 -2 -4.5 -3.5t-5 -2t-5.5 -0.5zM640 299q-9 0 -15 6l-256 256q-6 6 -6 15t6 15t15 6t15 -6l256 -256q6 -6 6 -15t-6 -15t-15 -6z
" />
    <glyph glyph-name="x-line" unicode="&#xf022;" 
d="M256 171q-3 0 -5.5 0.5t-5 2t-4.5 3.5q-6 6 -6 15t6 15l512 512q6 6 15 6t15 -6t6 -15t-6 -15l-512 -512q-2 -2 -4.5 -3.5t-5 -2t-5.5 -0.5zM768 171q-9 0 -15 6l-512 512q-6 6 -6 15t6 15t15 6t15 -6l512 -512q6 -6 6 -15t-6 -15q-1 -2 -3 -3l-4 -2t-4 -1h-4z" />
    <glyph glyph-name="x-octagon-line" unicode="&#xf023;" 
d="M689 0h-354q-9 0 -15 6l-250 250q-3 3 -4.5 7t-1.5 8v354q0 9 6 15l250 250q7 6 15 6h354q9 0 15 -6l250 -250q6 -7 6 -15v-354q0 -9 -6 -15l-250 -250q-3 -3 -7 -4.5t-8 -1.5zM344 43h336l237 237v336l-237 237h-336l-237 -237v-336zM384 299q-9 0 -15 6t-6 15t6 15
l256 256q6 6 15 6t15 -6t6 -15t-6 -15l-256 -256q-2 -2 -4.5 -3.5t-5 -2t-5.5 -0.5zM640 299q-9 0 -15 6l-256 256q-6 6 -6 15t6 15t15 6t15 -6l256 -256q6 -6 6 -15t-6 -15t-15 -6z" />
    <glyph glyph-name="x-square-line" unicode="&#xf024;" 
d="M811 43h-598q-44 0 -75 31t-31 75v598q0 44 31 75t75 31h598q21 0 41 -8.5t34 -22.5t22.5 -34t8.5 -41v-598q0 -44 -31 -75t-75 -31zM213 811q-17 0 -32 -8.5t-23.5 -23.5t-8.5 -32v-598q0 -26 19 -45t45 -19h598q26 0 45 19t19 45v598q0 17 -8.5 32t-23.5 23.5t-32 8.5
h-598zM640 299q-9 0 -15 6l-256 256q-6 6 -6 15t6 15t15 6t15 -6l256 -256q6 -6 6 -15t-6 -15t-15 -6zM384 299q-9 0 -15 6t-6 15t6 15l256 256q6 6 15 6t15 -6t6 -15t-6 -15l-256 -256q-2 -2 -4.5 -3.5t-5 -2t-5.5 -0.5z" />
    <glyph glyph-name="youtube-line" unicode="&#xf025;" 
d="M512 108q-37 0 -89.5 1t-151 6t-131.5 14q-36 9 -62 35t-36 61q-21 117 -21 234q0 115 20 229q10 37 36 64.5t62 37.5q77 21 373 21q37 0 89.5 -0.5t151 -5.5t131.5 -13q24 -7 44.5 -21.5t34 -35t19.5 -44.5l1 -1q20 -115 20 -231q0 -115 -20 -228q-5 -19 -14 -35.5
t-21.5 -29.5t-28.5 -22.5t-34 -14.5q-77 -21 -373 -21zM512 768h-33t-74.5 -1t-98.5 -3t-90.5 -6t-64.5 -9q-17 -5 -31 -15t-23.5 -24t-13.5 -31q-20 -109 -19 -220q-1 -113 19 -224q7 -23 25 -40.5t43 -24.5q14 -4 42 -7t59 -5t69.5 -3.5t68.5 -2t61.5 -1t43 -0.5h17.5
q291 0 361 19q25 7 43.5 26t24.5 44q19 108 19 219q0 22 -0.5 44.5t-2 45t-4 44.5t-5.5 44.5t-7 44.5q-3 9 -7.5 18.5t-10.5 17.5t-14 14t-17 11t-19 8q-31 7 -128 11.5t-149 5t-84 0.5zM416 298q-6 0 -11 3q-10 6 -10 18v279q0 12 10.5 18.5t21.5 0.5l245 -140q5 -3 8 -8
t3 -10q0 -13 -11 -19l-245 -139q-5 -3 -11 -3zM437 562v-206l181 103z" />
    <glyph glyph-name="zap-line" unicode="&#xf026;" 
d="M469 0q-4 0 -8 2q-15 6 -13 22l40 317h-360q-14 0 -19.5 12.5t3.5 22.5l426 512q11 13 25.5 6.5t12.5 -22.5l-40 -317h360q14 0 19 -13q3 -5 2 -11.5t-5 -10.5l-426 -512q-7 -8 -17 -8zM174 384h338q10 0 16 -7t5 -17l-33 -269l350 421h-338q-10 0 -16 7q-3 4 -4.5 8
t-0.5 9l33 269z" />
    <glyph glyph-name="zap-off-line" unicode="&#xf027;" 
d="M530 651h-3q-9 1 -14.5 8t-4.5 16l17 130l-58 -69q-2 -2 -5 -4t-6 -2.5t-6.5 -0.5t-6.5 1t-6 4q-4 3 -6 8.5t-1 11t5 10.5l103 124q3 4 7.5 6t9 2t8.5 -2q7 -3 10.5 -9t2.5 -13l-25 -203q-1 -4 -3 -7.5t-4.5 -5.5t-6.5 -3.5t-7 -1.5zM792 388q-7 0 -13 5q-7 5 -8 14t5 16
l74 89h-182q-9 0 -15 6.5t-6 15t6 15t15 6.5h228q4 0 8 -1.5t7 -4.5t4 -7q3 -5 2 -11.5t-5 -10.5l-103 -124q-2 -3 -5 -4.5t-6 -2.5t-6 -1zM469 0q-4 0 -8 2q-15 6 -13 22l40 317h-360q-14 0 -19.5 12.5t3.5 22.5l213 256q6 7 14.5 8t15.5 -5t7.5 -14.5t-4.5 -15.5
l-184 -221h338q10 0 16 -7t5 -17l-33 -269l166 200q6 7 14.5 7.5t15.5 -4.5q4 -3 6 -7t2 -8t-1 -8t-4 -7l-213 -256q-7 -8 -17 -8zM981 -43q-1 0 -3 0.5t-3.5 1l-3 1t-3 1.5t-2.5 3l-938 938q-7 7 -7 15.5t6.5 15t15.5 6.5t15 -7l938 -938q7 -6 7 -15t-7 -15q-6 -6 -15 -7z
" />
    <glyph glyph-name="zoom-in-line" unicode="&#xf028;" 
d="M469.5 128q-98.5 0 -182 48.5t-132 132t-48.5 182t48.5 182t132 132t181.5 48.5q33 0 65.5 -5.5t61.5 -17t56 -27t50.5 -35.5t44 -43.5t36 -51t26.5 -56.5t17 -61t6 -65q0 -99 -48.5 -182.5t-132 -132t-182 -48.5zM469 811q-65 0 -124 -25.5t-102 -68.5t-68.5 -102
t-25.5 -124q0 -87 43 -161t117 -116.5t160.5 -42.5t160.5 42.5t116.5 116.5t42.5 161q0 65 -25 124t-68 102t-102.5 68.5t-124.5 25.5zM896 43q-4 0 -8 1.5t-7 4.5l-186 186q-1 1 -2.5 3t-2.5 4.5t-1 5v4.5t1 4.5t2.5 4.5t2.5 4q7 6 15.5 6t15.5 -6l185 -186q12 -15 0 -30
q-7 -6 -15 -6zM469 341q-5 0 -10 3t-8 8t-3 11v256q0 8 6.5 14.5t15 6.5t15 -6.5t6.5 -14.5v-256q0 -17 -17 -21q-3 -1 -5 -1zM597 469h-256q-5 0 -10 3t-8 8t-3 11q0 8 6.5 14.5t14.5 6.5h256q9 0 15.5 -6.5t6.5 -15t-6.5 -15t-15.5 -6.5z" />
    <glyph glyph-name="zoom-out-line" unicode="&#xf029;" 
d="M469.5 128q-98.5 0 -182 48.5t-132 132t-48.5 182t48.5 182t132 132t181.5 48.5q33 0 65.5 -5.5t61.5 -17t56 -27t50.5 -35.5t44 -43.5t36 -51t26.5 -56.5t17 -61t6 -65q0 -99 -48.5 -182.5t-132 -132t-182 -48.5zM469 811q-65 0 -124 -25.5t-102 -68.5t-68.5 -102
t-25.5 -124q0 -87 43 -161t117 -116.5t160.5 -42.5t160.5 42.5t116.5 116.5t42.5 161q0 65 -25 124t-68 102t-102.5 68.5t-124.5 25.5zM896 43q-4 0 -8 1.5t-7 4.5l-186 186q-1 1 -2.5 3t-2.5 4.5t-1 5v4.5t1 4.5t2.5 4.5t2.5 4q7 6 15.5 6t15.5 -6l185 -186q12 -15 0 -30
q-7 -6 -15 -6zM597 469h-256q-5 0 -10 3t-8 8t-3 11q0 8 6.5 14.5t14.5 6.5h256q9 0 15.5 -6.5t6.5 -15t-6.5 -15t-15.5 -6.5z" />
    <glyph glyph-name="uniE800" unicode="&#xf800;" 
d="M1017 337l-452 500q-10 11 -24 17.5t-29 6.5t-29 -6.5t-24 -17.5l-452 -500q-7 -8 -6.5 -18.5t7.5 -17.5q4 -3 8.5 -5t9.5 -2t10 2.5t9 6.5l109 120v-410q0 -32 22.5 -54.5t53.5 -22.5h564q31 0 53.5 22.5t22.5 54.5v410l109 -120q8 -8 18.5 -8.5t18.5 6.5q7 7 7.5 17.5
t-6.5 18.5zM614 -13h-204v231q0 10 7.5 17.5t17.5 7.5h154q10 0 17.5 -7.5t7.5 -17.5v-231zM819 13q0 -11 -7.5 -18.5t-17.5 -7.5h-128v231q0 31 -22.5 53.5t-54.5 22.5h-154q-32 0 -54.5 -22.5t-22.5 -53.5v-231h-128q-10 0 -17.5 7.5t-7.5 18.5v467l292 322q3 4 7 6t8 2
t8 -2t7 -6l292 -322v-467z" />
    <glyph glyph-name="uniE801" unicode="&#xf801;" 
d="M717 653h51v-51h-51v51zM717 550h51v-51h-51v51zM717 448h51v-51h-51v51zM717 346h51v-52h-51v52zM717 141h51v-51h-51v51zM717 243h51v-51h-51v51zM307 653h51v-51h-51v51zM307 550h51v-51h-51v51zM307 448h51v-51h-51v51zM307 346h51v-52h-51v52zM307 141h51v-51h-51
v51zM307 243h51v-51h-51v51zM205 653h51v-51h-51v51zM205 550h51v-51h-51v51zM205 448h51v-51h-51v51zM205 346h51v-52h-51v52zM205 141h51v-51h-51v51zM205 243h51v-51h-51v51zM410 653h51v-51h-51v51zM410 550h51v-51h-51v51zM410 448h51v-51h-51v51zM410 346h51v-52h-51
v52zM410 141h51v-51h-51v51zM410 243h51v-51h-51v51zM947 -13h-25v691q0 30 -19.5 56.5t-46.5 35.5l-242 80v84q0 6 -2.5 11.5t-7.5 9.5t-11 5t-12 -1l-463 -139q-28 -8 -47.5 -34.5t-19.5 -55.5v-743h-25q-11 0 -18.5 -7.5t-7.5 -17.5q0 -11 7.5 -18.5t18.5 -7.5h921
q11 0 18.5 7.5t7.5 18.5q0 10 -7.5 17.5t-18.5 7.5zM839 722q13 -5 22 -18t9 -26v-691h-256v809zM102 730q0 12 9.5 24.5t21.5 16.5l430 129v-913h-461v743z" />
    <glyph glyph-name="uniE802" unicode="&#xf802;" 
d="M978 914q-21 22 -49 33.5t-59 11.5q-30 0 -58 -11.5t-49 -33.5l-653 -653q-2 -2 -3.5 -4t-2.5 -5l-102 -282q-3 -7 -1.5 -14t6.5 -13q4 -3 9 -5t10 -2q2 0 4 0.5t4 1.5l282 102q3 1 5 2.5t4 3.5l653 653q22 21 33.5 49t11.5 58q0 31 -11.5 59t-33.5 49zM293 86l-225 -82
l82 225l567 567l143 -143zM942 735l-46 -46l-143 143l46 46q14 14 32.5 22t38.5 8q21 0 39.5 -8t32.5 -22t22 -32.5t8 -39.5q0 -20 -8 -38.5t-22 -32.5z" />
    <glyph glyph-name="uniE803" unicode="&#xf803;" 
d="M589 602q-11 0 -18.5 7.5t-7.5 17.5q0 53 -37.5 90.5t-90.5 37.5q-10 0 -17.5 7.5t-7.5 18.5q0 10 7.5 17.5t17.5 7.5q53 0 90.5 37.5t37.5 90.5q0 11 7.5 18.5t18.5 7.5q10 0 17.5 -7.5t7.5 -18.5q0 -53 37.5 -90.5t90.5 -37.5q11 0 18.5 -7.5t7.5 -17.5
q0 -11 -7.5 -18.5t-18.5 -7.5q-53 0 -90.5 -37.5t-37.5 -90.5q0 -10 -7.5 -17.5t-17.5 -7.5zM527 781q19 -12 34.5 -27.5t27.5 -34.5q11 19 26.5 34.5t34.5 27.5q-19 11 -34.5 26.5t-26.5 34.5q-12 -19 -27.5 -34.5t-34.5 -26.5zM77 448q-11 0 -18.5 7.5t-7.5 18.5
q0 10 -7.5 17.5t-17.5 7.5q-11 0 -18.5 7.5t-7.5 18.5q0 10 7.5 17.5t18.5 7.5q10 0 17.5 7.5t7.5 18.5t7.5 18.5t18.5 7.5q10 0 17.5 -7.5t7.5 -18.5t7.5 -18.5t18.5 -7.5t18.5 -7.5t7.5 -17.5q0 -11 -7.5 -18.5t-18.5 -7.5t-18.5 -7.5t-7.5 -17.5q0 -11 -7.5 -18.5
t-17.5 -7.5zM929 144l-542 542q-11 11 -25 16.5t-29 5.5q-16 0 -30 -5.5t-25 -16.5l-29 -30q-11 -11 -17 -25t-6 -29q0 -16 6 -30t17 -25l541 -542q11 -11 25 -16.5t30 -5.5q15 0 29 5.5t25 16.5l30 30q11 11 17 25t6 30q0 15 -6 29t-17 25zM285 620l30 30q3 3 8 5t10 2
t9.5 -2t8.5 -5l74 -74l-67 -66l-73 73q-8 8 -8 18.5t8 18.5zM893 71l-30 -29q-4 -4 -8.5 -6t-9.5 -2t-10 2t-8 6l-432 432l66 66l432 -432q7 -8 7 -18.5t-7 -18.5zM179 704q-10 0 -17.5 7.5t-7.5 18.5q0 31 -22.5 53.5t-54.5 22.5q-11 0 -18.5 7.5t-7.5 18.5t7.5 18.5
t18.5 7.5q32 0 54.5 22.5t22.5 53.5q0 11 7.5 18.5t17.5 7.5q11 0 18.5 -7.5t7.5 -18.5q0 -31 22.5 -53.5t54.5 -22.5q10 0 17.5 -7.5t7.5 -18.5t-7.5 -18.5t-17.5 -7.5q-32 0 -54.5 -22.5t-22.5 -53.5q0 -11 -7.5 -18.5t-18.5 -7.5zM154 832q7 -5 13.5 -11.5t11.5 -14.5
q6 8 12.5 14.5t13.5 11.5q-7 5 -13.5 11.5t-12.5 14.5q-5 -8 -11.5 -14.5t-13.5 -11.5zM179 192q-10 0 -17.5 7.5t-7.5 18.5q0 31 -22.5 53.5t-54.5 22.5q-11 0 -18.5 7.5t-7.5 18.5t7.5 18.5t18.5 7.5q32 0 54.5 22.5t22.5 53.5q0 11 7.5 18.5t17.5 7.5q11 0 18.5 -7.5
t7.5 -18.5q0 -31 22.5 -53.5t54.5 -22.5q10 0 17.5 -7.5t7.5 -18.5t-7.5 -18.5t-17.5 -7.5q-32 0 -54.5 -22.5t-22.5 -53.5q0 -11 -7.5 -18.5t-18.5 -7.5zM154 320q7 -5 13.5 -11.5t11.5 -14.5q6 8 12.5 14.5t13.5 11.5q-7 5 -13.5 11.5t-12.5 14.5q-5 -8 -11.5 -14.5
t-13.5 -11.5z" />
    <glyph glyph-name="uniE804" unicode="&#xf804;" 
d="M512 -64q-62 0 -118 24.5t-99 69.5q-43 47 -66.5 108.5t-23.5 130.5q0 56 12 106q11 49 30.5 94t44.5 87q24 43 51 85q21 34 41 68q21 34 39.5 70.5t35.5 76.5q16 40 28 85q3 8 9.5 13.5t15.5 5.5t15.5 -5.5t9.5 -13.5q12 -45 28 -85q17 -40 36 -76.5t39 -70.5
q21 -35 41 -68q27 -42 52 -85q25 -42 44 -87t31 -94q11 -50 11 -106q0 -69 -23 -130.5t-66 -108.5q-43 -45 -99 -69.5t-119 -24.5zM512 852q-26 -68 -59 -125.5t-66 -112.5q-27 -42 -50 -82q-24 -40 -42 -81.5t-28 -86.5q-11 -44 -11 -95q0 -60 20 -112q19 -51 53.5 -89
t81.5 -59q46 -22 101 -22t102 22q46 21 80.5 59t54.5 89q19 52 19 112q0 51 -11 95q-10 45 -28 86.5t-41 81.5q-24 40 -50 82q-34 55 -67 112.5t-59 125.5z" />
    <glyph glyph-name="uniE805" unicode="&#xf805;" 
d="M896 499h-35l-44 88q-3 7 -9.5 11t-13.5 4h-205q-11 0 -18.5 -7.5t-7.5 -18.5v-77h-62l-197 342q-6 9 -16 12t-19 -3l-178 -102q-9 -5 -11.5 -15.5t2.5 -19.5l205 -355q3 -6 9 -9t13 -3q3 0 6.5 0.5t6.5 2.5l139 80v-416q0 -11 7.5 -18.5t17.5 -7.5h410q11 0 18.5 7.5
t7.5 18.5v461q0 10 -7.5 17.5t-18.5 7.5zM870 192h-51v154h51v-154zM614 550h164l26 -51h-190v51zM318 406l-179 311l133 76l179 -310zM512 38v410h358v-51h-76q-11 0 -18.5 -7.5t-7.5 -18.5v-205q0 -10 7.5 -17.5t18.5 -7.5h76v-103h-358zM794 653q-29 0 -44.5 11t-21.5 22
q-13 22 -11 55t19 79q12 30 23.5 52.5t11.5 23.5q4 6 10 9.5t13 3.5t13 -3.5t9 -9.5q1 -1 12 -23.5t23 -52.5q17 -46 19 -79t-10 -55q-7 -11 -22.5 -22t-43.5 -11zM794 825q-3 -6 -5.5 -12t-4.5 -12q-17 -47 -15.5 -66t3.5 -23q1 -2 5 -5t17 -3q12 0 16 3t5 5q3 4 4.5 23.5
t-16.5 66.5q-2 6 -4.5 11.5t-4.5 11.5z" />
    <glyph glyph-name="uniE806" unicode="&#xf806;" 
d="M873 279q-3 2 -6 3.5t-6 2.5q37 29 49 59t12 53q0 54 -43.5 99.5t-119.5 74.5q4 14 6.5 28t2.5 28q0 74 -52.5 126.5t-126.5 52.5q-26 0 -51.5 10t-25.5 42q0 17 16 33.5t24 21.5q7 5 10 13t0 16q-2 8 -9 13t-15 5q-61 0 -120 -19t-107 -53q-24 -18 -43 -38t-33 -43
q-15 -25 -22.5 -50.5t-7.5 -52.5q0 -11 1 -22l2 -22q-32 -16 -59 -36.5t-48 -44.5q-24 -29 -37 -62.5t-13 -68.5q0 -21 4.5 -42t13.5 -42q-34 -33 -51.5 -70t-17.5 -76q0 -59 38 -111.5t110 -92.5q34 -19 73 -33q40 -15 83 -25t89 -15t93 -5q50 0 96 3t89 9t80 15
q38 9 70 21q94 34 123 78t29 79q0 28 -19 65.5t-81 72.5zM803 32q-29 -11 -65 -19q-36 -9 -76 -14.5t-84 -8.5q-45 -3 -92 -3q-44 0 -87 5t-82.5 14t-76.5 22q-36 14 -67 31q-59 33 -90.5 74t-31.5 85q0 30 13.5 55.5t31.5 44.5q4 -7 9 -13l10 -12q30 -35 71.5 -61t87.5 -39
q2 -1 4 -1h4q8 0 15 5t9 13q3 11 -2 20t-15 12q-80 23 -133.5 82t-53.5 124q0 47 32 90t88 72q20 -56 60.5 -99t92.5 -62q3 0 5 -0.5t4 -0.5q8 0 14.5 4.5t9.5 12.5q4 10 -0.5 19.5t-14.5 13.5q-59 20 -98 79t-39 127q0 39 22 75.5t63 66.5q29 21 62.5 35.5t69.5 21.5
q-5 -10 -8.5 -21.5t-3.5 -23.5q0 -38 28.5 -70.5t99.5 -32.5q53 0 90.5 -37.5t37.5 -90.5q0 -10 -1.5 -20t-5.5 -20q-15 4 -31.5 7.5t-34.5 6.5q-10 2 -19 -4t-10 -17q-2 -10 4 -19t17 -10q53 -9 97.5 -25t76.5 -38q21 -14 40.5 -37.5t19.5 -53.5q0 -25 -16 -47t-49 -41
q-35 13 -76 22t-86 14q-11 2 -19 -4.5t-9 -17.5q-2 -11 4.5 -19t17.5 -9q65 -8 118.5 -23.5t92.5 -37.5q25 -14 49.5 -37.5t24.5 -55.5q0 -41 -39 -67.5t-80 -41.5z" />
    <glyph glyph-name="uniE807" unicode="&#xf807;" 
d="M486 192q-47 0 -89 18q-42 19 -73 50t-50 73q-18 42 -18 89q0 48 18 90q19 42 50 73t73 49t89 18q48 0 90 -18t73 -49t49 -73t18 -90q0 -47 -18 -89t-49 -73t-73 -50q-42 -18 -90 -18zM486 601q-74 0 -126 -52.5t-52 -126.5t52 -126t126 -52t126.5 52t52.5 126
t-52.5 126.5t-126.5 52.5zM486 704q-10 0 -17.5 7.5t-7.5 18.5v153q0 11 7.5 18.5t17.5 7.5q11 0 18.5 -7.5t7.5 -18.5v-153q0 -11 -7.5 -18.5t-18.5 -7.5zM486 -64q-10 0 -17.5 7.5t-7.5 18.5v153q0 11 7.5 18.5t17.5 7.5q11 0 18.5 -7.5t7.5 -18.5v-153q0 -11 -7.5 -18.5
t-18.5 -7.5zM179 397h-153q-11 0 -18.5 7.5t-7.5 17.5q0 11 7.5 18.5t18.5 7.5h153q11 0 18.5 -7.5t7.5 -18.5q0 -10 -7.5 -17.5t-18.5 -7.5zM947 397h-153q-11 0 -18.5 7.5t-7.5 17.5q0 11 7.5 18.5t18.5 7.5h153q11 0 18.5 -7.5t7.5 -18.5q0 -10 -7.5 -17.5t-18.5 -7.5z
M230 653q-5 0 -9.5 2t-8.5 5l-102 103q-8 7 -8 17.5t8 18.5q7 7 18 7t18 -7l103 -102q7 -8 7 -18.5t-7 -18.5q-4 -3 -9 -5t-10 -2zM128 38q-5 0 -9.5 2t-8.5 6q-8 7 -8 18t8 18l102 103q8 7 18.5 7t18.5 -7q7 -8 7 -18.5t-7 -18.5l-103 -102q-4 -4 -8.5 -6t-9.5 -2zM845 38
q-5 0 -10 2t-8 6l-103 102q-7 8 -7 18.5t7 18.5q8 7 18.5 7t18.5 -7l102 -103q7 -7 7 -18t-7 -18q-4 -4 -8.5 -6t-9.5 -2zM742 653q-5 0 -9.5 2t-8.5 5q-7 8 -7 18.5t7 18.5l103 102q7 7 17.5 7t18.5 -7q7 -8 7 -18.5t-7 -17.5l-102 -103q-4 -3 -9 -5t-10 -2z" />
    <glyph glyph-name="uniE808" unicode="&#xf808;" 
d="M525 -64q-53 0 -103 10q-51 10 -98 29.5t-90 48.5t-80 66t-66 80t-48.5 90t-29.5 98q-10 50 -10 103q0 43 7 85t20.5 81.5t33.5 76.5t46 71q25 33 55 61t64 52q35 23 72.5 41t78.5 30q7 2 14.5 0t12.5 -8t5.5 -13.5t-2.5 -14.5q-25 -49 -37 -96t-12 -97q0 -90 35 -170
q34 -79 93 -138t138 -93q80 -35 170 -35q50 0 97 12t96 37q7 3 14.5 2.5t13.5 -5.5t8 -12.5t0 -14.5q-12 -41 -30 -78.5t-41 -72.5q-24 -34 -52 -64t-61 -55q-34 -26 -71 -46t-76.5 -33.5t-81.5 -20.5t-85 -7zM336 890q-64 -28 -117 -72t-90 -99.5t-58 -121.5
q-20 -65 -20 -136q0 -98 37 -184q38 -87 102 -151t151 -102q86 -37 184 -37q71 0 136 20q66 21 121.5 58t99.5 90t72 117q-39 -14 -79 -21.5t-81 -7.5q-49 0 -96 10q-47 9 -90.5 27t-83.5 45q-40 26 -74 61q-35 34 -61 74q-27 40 -45 83.5t-27 90.5q-10 47 -10 96
q0 41 7.5 81t21.5 79z" />
    <glyph glyph-name="uniE809" unicode="&#xf809;" 
d="M820 141h-513q-63 0 -119 24t-98 66t-66 98q-24 55 -24 119t24 119q24 56 66 98t98 66t119 24q62 0 118.5 -23.5t99.5 -67.5q4 8 8 15t9 14q22 29 54.5 45.5t69.5 16.5q63 0 108 -45t45 -108q0 -14 -2 -27t-7 -25h10q42 0 79 -16t65 -44t44 -65t16 -80q0 -42 -16 -79
t-44 -65t-65 -44t-79 -16zM307 704q-53 0 -99 -20q-47 -20 -82 -55t-55 -81q-20 -47 -20 -100t20 -100q20 -46 55 -81t82 -55q46 -20 99 -20h513q63 0 108 45t45 108q0 64 -45 109t-108 45q-14 0 -27 -2.5t-26 -7.5q-8 -3 -16.5 0t-13.5 10q-5 8 -4 17t7 15q13 14 20.5 32.5
t7.5 38.5q0 42 -30 72t-72 30q-25 0 -46.5 -11t-36.5 -31q-9 -12 -14 -25.5t-6 -28.5q0 -8 -5 -14.5t-13 -8.5t-16 0.5t-12 9.5q-4 6 -9 12t-9 11q-37 41 -87 63.5t-105 22.5z" />
    <glyph glyph-name="uniE80A" unicode="&#xf80a;" 
d="M820 141h-180q-11 0 -18.5 7.5t-7.5 17.5q0 11 7.5 18.5t18.5 7.5h180q63 0 108 45t45 108q0 64 -45 109t-108 45q-14 0 -27 -2.5t-26 -7.5q-8 -3 -16.5 0t-13.5 10q-5 8 -4 17t7 15q13 14 20.5 32.5t7.5 38.5q0 42 -30 72t-72 30q-25 0 -46.5 -11t-36.5 -31
q-9 -12 -14 -25.5t-6 -28.5q0 -8 -5 -14.5t-13 -8.5t-15.5 0.5t-12.5 9.5q-4 6 -9 12t-9 11q-37 41 -87 63.5t-105 22.5q-53 0 -99 -20q-47 -20 -81.5 -55t-55.5 -81q-20 -47 -20 -100t20 -100q21 -46 55.5 -81t81.5 -55q46 -20 99 -20h128q11 0 18.5 -7.5t7.5 -18.5
q0 -10 -7.5 -17.5t-18.5 -7.5h-128q-63 0 -119 24t-98 66t-66 98q-24 55 -24 119t24 119q24 56 66 98t98 66t119 24q62 0 118.5 -23.5t99.5 -67.5q4 8 8 15t9 14q22 29 54.5 45.5t69.5 16.5q63 0 108 -45t45 -108q0 -14 -2 -27t-7 -25h10q42 0 79 -16t65 -44t44 -65t16 -80
q0 -42 -16 -79t-44 -65t-65 -44t-79 -16zM658 338l-102 103q-8 7 -18.5 7t-18.5 -7l-102 -103q-7 -7 -7 -18t7 -18q8 -8 18.5 -8t17.5 8l59 59v-195q0 -10 7.5 -17.5t18.5 -7.5q10 0 17.5 7.5t7.5 17.5v195l59 -59q4 -4 8.5 -6t9.5 -2t9.5 2t8.5 6q8 7 8 18t-8 18z" />
    <glyph glyph-name="uniE80B" unicode="&#xf80b;" 
d="M820 141h-129q-10 0 -17.5 7.5t-7.5 17.5q0 11 7.5 18.5t17.5 7.5h129q63 0 108 45t45 108q0 64 -45 109t-108 45q-14 0 -27 -2.5t-26 -7.5q-8 -3 -16.5 0t-13.5 10q-5 8 -4 17t7 15q13 14 20.5 32.5t7.5 38.5q0 42 -30 72t-72 30q-25 0 -46.5 -11t-36.5 -31
q-9 -12 -14 -25.5t-6 -28.5q0 -8 -5 -14.5t-13 -8.5t-15.5 0.5t-12.5 9.5q-4 6 -9 12t-9 11q-37 41 -87 63.5t-105 22.5q-53 0 -99 -20q-47 -20 -81.5 -55t-55.5 -81q-20 -47 -20 -100t20 -100q21 -46 55.5 -81t81.5 -55q46 -20 99 -20h77q11 0 18.5 -7.5t7.5 -18.5
q0 -10 -7.5 -17.5t-18.5 -7.5h-77q-63 0 -119 24t-98 66t-66 98q-24 55 -24 119t24 119q24 56 66 98t98 66t119 24q62 0 118.5 -23.5t99.5 -67.5q4 8 8 15t9 14q22 29 54.5 45.5t69.5 16.5q63 0 108 -45t45 -108q0 -14 -2 -27t-7 -25h10q42 0 79 -16t65 -44t44 -65t16 -80
q0 -42 -16 -79t-44 -65t-65 -44t-79 -16zM658 287q-7 7 -18 7t-18 -7l-59 -59v194q0 11 -7.5 18.5t-17.5 7.5q-11 0 -18.5 -7.5t-7.5 -18.5v-194l-59 59q-7 7 -17.5 7t-18.5 -7q-7 -8 -7 -18.5t7 -17.5l102 -103q4 -3 9 -5t10 -2t9.5 2t8.5 5l102 103q8 7 8 17.5t-8 18.5z
" />
    <glyph glyph-name="uniE80C" unicode="&#xf80c;" 
d="M820 550h-10q5 12 7 25t2 27q0 63 -45 108t-108 45q-37 0 -69.5 -16.5t-54.5 -45.5q-5 -7 -9 -14t-8 -15q-43 44 -99.5 67.5t-118.5 23.5q-63 0 -119 -24t-98 -66t-66 -98q-24 -55 -24 -119t24 -119q24 -56 66 -98t98 -66t119 -24h513q42 0 79 16t65 44t44 65t16 79
q0 43 -16 80t-44 65t-65 44t-79 16zM820 192h-513q-53 0 -99 20q-47 20 -82 55t-55 81q-20 47 -20 100t20 100q20 46 55 81t82 55q46 20 99 20q55 0 105 -22.5t87 -63.5q4 -5 9 -11t9 -12q5 -7 12.5 -9.5t15.5 -0.5t13 8.5t5 14.5q1 15 6 28.5t14 25.5q15 20 36.5 31
t46.5 11q42 0 72 -30t30 -72q0 -20 -7.5 -38.5t-20.5 -32.5q-6 -6 -7 -15t4 -17q5 -7 13.5 -10t16.5 0q13 5 26 7.5t27 2.5q63 0 108 -45t45 -109q0 -63 -45 -108t-108 -45zM328 348q-5 -1 -10.5 -1.5t-10.5 -0.5q-42 0 -72 30t-30 72v15l7 -8q4 -3 8.5 -5t9.5 -2t10 2t9 5
q7 8 7 18.5t-7 18.5l-52 51q-7 7 -17.5 7t-18.5 -7l-51 -51q-8 -8 -8 -18.5t8 -18.5q7 -7 18 -7t18 7l8 8v-15q0 -64 45 -109t108 -45q8 0 16 1t15 3q11 2 16.5 10.5t3.5 19.5q-2 10 -11 16t-19 4zM468 441l-7 -8v15q0 64 -45 109t-109 45q-8 0 -15.5 -1t-15.5 -3
q-10 -2 -16 -10.5t-4 -19.5q2 -10 11 -16t20 -4q5 1 10 1.5t10 0.5q43 0 73 -30t30 -72v-15l-8 8q-7 7 -18 7t-18 -7q-8 -8 -8 -18.5t8 -18.5l51 -51q4 -4 8.5 -5.5t9.5 -1.5t10 1.5t8 5.5l52 51q7 8 7 18.5t-7 18.5q-8 7 -18.5 7t-18.5 -7z" />
    <glyph glyph-name="uniE80D" unicode="&#xf80d;" 
d="M819 141h-486q-11 0 -18.5 7.5t-7.5 17.5q0 11 7.5 18.5t18.5 7.5h486q64 0 109 45t45 109q0 63 -45 108t-109 45q-13 0 -26 -2t-25 -7q-8 -2 -16.5 0.5t-13.5 10.5q-5 7 -4 16t7 15q13 14 20 32t7 38q0 42 -30 72t-72 30q-41 0 -70.5 -28t-32.5 -68q0 -8 -5 -14.5
t-13 -8.5t-15.5 0.5t-12.5 9.5q-36 51 -91.5 80t-118.5 29q-53 0 -99 -20q-47 -20 -82 -55t-55 -81q-20 -47 -20 -100q0 -6 0.5 -12t0.5 -11q1 -11 -5.5 -19t-17.5 -9t-19 6t-9 17q0 7 -0.5 14t-0.5 14q0 64 24 119q24 56 66 98t98 66t119 24q62 0 118.5 -23.5t99.5 -67.5
q18 41 56 66t85 25q63 0 108 -45t45 -108q0 -14 -2 -27t-7 -25h9q43 0 80 -16t65 -43.5t44 -65.5q16 -37 16 -79q0 -43 -16 -80t-44 -65t-65 -44t-80 -16zM179 166q-5 0 -9.5 2t-8.5 6l-102 102q-8 8 -8 18.5t8 18.5q7 7 17.5 7t18.5 -7l84 -85l238 238q8 8 18.5 8t17.5 -8
q8 -7 8 -18t-8 -18l-256 -256q-3 -4 -8 -6t-10 -2z" />
    <glyph glyph-name="uniE80E" unicode="&#xf80e;" 
d="M925 878q-19 12 -45.5 23t-60.5 21q-33 9 -72 16q-38 7 -80.5 12t-87.5 7q-46 3 -93 3t-92 -3q-45 -2 -87.5 -7t-80.5 -12q-39 -7 -72 -16q-34 -10 -60.5 -21t-45.5 -23q-24 -16 -36 -34t-12 -38v-614q0 -20 12 -38t36 -33q19 -13 45.5 -24t60.5 -20q33 -9 72 -17
q38 -7 80.5 -12t87.5 -7q45 -3 92 -3t93 3q45 2 87.5 7t80.5 12q39 8 72 17q34 9 60.5 20t45.5 24q24 15 36 33t12 38v614q0 20 -12 38t-36 34zM167 872q32 9 69 16t77.5 11.5t84.5 6.5q43 3 88 3q46 0 89 -3q44 -2 84.5 -6.5t77.5 -11.5t68 -16q69 -19 93 -38t24 -28
q0 -8 -24 -27t-93 -38q-31 -9 -68 -16t-77.5 -11.5t-84.5 -7.5q-43 -2 -89 -2q-45 0 -88 2q-44 3 -84.5 7.5t-77.5 11.5t-69 16q-69 19 -92.5 38t-23.5 27q0 9 23.5 28t92.5 38zM805 126q-31 -9 -68 -16q-37 -6 -77.5 -11t-84.5 -7q-43 -2 -89 -2q-45 0 -88 2q-44 2 -84.5 7
t-77.5 11q-37 7 -69 16q-69 19 -92.5 38t-23.5 28v131q19 -11 45 -21.5t58 -19.5q33 -10 72 -17q38 -7 80.5 -12t87.5 -7q45 -3 92 -3t93 3q45 2 87.5 7t80.5 12q39 7 72 17q32 9 58 19.5t45 21.5v-131q0 -9 -24 -28t-93 -38zM805 331q-31 -9 -68 -16t-77.5 -11.5
t-84.5 -6.5q-43 -3 -89 -3q-45 0 -88 3q-44 2 -84.5 6.5t-77.5 11.5t-69 16q-69 19 -92.5 38t-23.5 28v131q19 -12 45 -22.5t58 -19.5q33 -9 72 -16q38 -7 80.5 -12t87.5 -7q45 -3 92 -3t93 3q45 2 87.5 7t80.5 12q39 7 72 16q32 9 58 19.5t45 22.5v-131q0 -9 -24 -28
t-93 -38zM805 536q-31 -9 -68 -16t-77.5 -11.5t-84.5 -6.5q-43 -3 -89 -3q-45 0 -88 3q-44 2 -84.5 6.5t-77.5 11.5t-69 16q-69 19 -92.5 38t-23.5 28v131q19 -12 45 -22.5t58 -19.5q33 -9 72 -16q38 -7 80.5 -12t87.5 -8q45 -2 92 -2t93 2q45 3 87.5 8t80.5 12q39 7 72 16
q32 9 58 19.5t45 22.5v-131q0 -9 -24 -28t-93 -38z" />
    <glyph glyph-name="uniE80F" unicode="&#xf80f;" 
d="M742 550h-25v77q0 48 -18 90t-49.5 73t-73.5 49q-42 19 -90 19q-47 0 -89 -19q-42 -18 -73.5 -49t-49.5 -73t-18 -90v-77h-26q-31 0 -53.5 -22.5t-22.5 -53.5v-410q0 -32 22.5 -54.5t53.5 -22.5h512q32 0 54.5 22.5t22.5 54.5v410q0 31 -22.5 53.5t-54.5 22.5zM307 627
q0 74 52.5 126.5t126.5 52.5q75 0 127.5 -52.5t52.5 -126.5v-77h-359v77zM768 64q0 -11 -7.5 -18.5t-18.5 -7.5h-512q-10 0 -17.5 7.5t-7.5 18.5v410q0 10 7.5 17.5t17.5 7.5h512q11 0 18.5 -7.5t7.5 -17.5v-410z" />
    <glyph glyph-name="uniE810" unicode="&#xf810;" 
d="M391 -49q-2 0 -3.5 0.5t-3.5 0.5q-34 9 -67 22.5t-64 31.5q-9 6 -11.5 16t2.5 19q6 11 9 23.5t3 25.5q0 42 -30 72t-72 30q-13 0 -25.5 -3t-23.5 -9q-9 -5 -19 -2.5t-16 11.5q-18 31 -31.5 64t-22.5 67q-2 10 2.5 19t14.5 12q31 10 50 37t19 60t-19 60t-50 37
q-10 3 -14.5 12t-2.5 19q9 34 22.5 67t31.5 64q6 9 16 11.5t19 -2.5q11 -6 23.5 -9t25.5 -3q42 0 72 30t30 72q0 13 -3 25.5t-9 23.5q-5 9 -2.5 19t11.5 16q31 18 64 31.5t67 22.5q10 2 19 -2.5t12 -14.5q10 -31 37 -50t60 -19t60 19t37 50q3 10 12 14.5t19 2.5
q34 -9 67 -22.5t64 -31.5q9 -6 11.5 -16t-2.5 -19q-6 -11 -9 -23.5t-3 -25.5q0 -42 30 -72t72 -30q13 0 25.5 3t23.5 9q9 5 19 2.5t16 -11.5q18 -31 31.5 -64t22.5 -67q2 -10 -2.5 -19t-14.5 -12q-31 -10 -50 -37t-19 -60t19 -60t50 -37q10 -3 14.5 -12t2.5 -19
q-9 -34 -22.5 -67t-31.5 -64q-6 -9 -16 -11.5t-19 2.5q-11 6 -23.5 9t-25.5 3q-42 0 -72 -30t-30 -72q0 -13 3 -25.5t9 -23.5q5 -9 2.5 -19t-11.5 -16q-31 -18 -64 -31.5t-67 -22.5q-10 -2 -19 2.5t-12 14.5q-10 31 -37 50t-60 19t-60 -19t-37 -50q-3 -8 -9.5 -13t-14.5 -5z
M512 90q43 0 79.5 -22.5t56.5 -59.5q20 6 39.5 14t37.5 17q-4 12 -6 25t-2 26q0 63 45 108t108 45q13 0 26 -2t25 -6q9 18 17 37.5t14 39.5q-37 20 -59.5 56.5t-22.5 79.5t22.5 79.5t59.5 56.5q-6 20 -14 39.5t-17 37.5q-12 -4 -25 -6t-26 -2q-63 0 -108 45t-45 108
q0 13 2 26t6 25q-18 9 -37.5 17t-39.5 14q-20 -37 -56.5 -59.5t-79.5 -22.5t-79.5 22.5t-56.5 59.5q-20 -6 -39.5 -14t-37.5 -17q4 -12 6 -25t2 -26q0 -63 -45 -108t-108 -45q-13 0 -26 2t-25 6q-9 -18 -17 -37.5t-14 -39.5q37 -20 59.5 -56.5t22.5 -79.5t-22.5 -79.5
t-59.5 -56.5q6 -20 14 -39.5t17 -37.5q12 4 25 6t26 2q63 0 108 -45t45 -108q0 -13 -2 -26t-6 -25q18 -9 37.5 -17t39.5 -14q20 37 56.5 59.5t79.5 22.5zM512 294q-64 0 -109 45t-45 109t45 109t109 45t109 -45t45 -109t-45 -109t-109 -45zM512 550q-42 0 -72 -30t-30 -72
t30 -72t72 -30t72 30t30 72t-30 72t-72 30z" />
    <glyph glyph-name="uniE811" unicode="&#xf811;" 
d="M794 858h-180v25q0 32 -22.5 54.5t-53.5 22.5h-103q-32 0 -54.5 -22.5t-22.5 -54.5v-25h-179q-32 0 -54.5 -22.5t-22.5 -54.5v-51q0 -25 14.5 -45t37.5 -28v-644q0 -32 22.5 -54.5t53.5 -22.5h512q32 0 54.5 22.5t22.5 54.5v644q23 8 37 28t14 45v51q0 32 -22.5 54.5
t-53.5 22.5zM410 883q0 11 7.5 18.5t17.5 7.5h103q10 0 17.5 -7.5t7.5 -18.5v-25h-153v25zM742 -13h-512q-10 0 -17.5 7.5t-7.5 18.5v640h563v-640q0 -11 -7.5 -18.5t-18.5 -7.5zM819 730q0 -11 -7.5 -18.5t-17.5 -7.5h-615q-10 0 -17.5 7.5t-7.5 18.5v51q0 10 7.5 17.5
t17.5 7.5h615q10 0 17.5 -7.5t7.5 -17.5v-51zM640 602q-11 0 -18.5 -7.5t-7.5 -18.5v-512q0 -11 7.5 -18.5t18.5 -7.5t18.5 7.5t7.5 18.5v512q0 11 -7.5 18.5t-18.5 7.5zM486 602q-10 0 -17.5 -7.5t-7.5 -18.5v-512q0 -11 7.5 -18.5t17.5 -7.5q11 0 18.5 7.5t7.5 18.5v512
q0 11 -7.5 18.5t-18.5 7.5zM333 602q-11 0 -18.5 -7.5t-7.5 -18.5v-512q0 -11 7.5 -18.5t18.5 -7.5q10 0 17.5 7.5t7.5 18.5v512q0 11 -7.5 18.5t-17.5 7.5z" />
    <glyph glyph-name="uniE812" unicode="&#xf812;" 
d="M282 141q-32 0 -54.5 22.5t-22.5 54.5q0 31 22.5 53.5t54.5 22.5q31 0 53.5 -22.5t22.5 -53.5q0 -32 -22.5 -54.5t-53.5 -22.5zM282 243q-11 0 -18.5 -7.5t-7.5 -17.5q0 -11 7.5 -18.5t18.5 -7.5q10 0 17.5 7.5t7.5 18.5q0 10 -7.5 17.5t-17.5 7.5zM282 346
q-32 0 -54.5 22.5t-22.5 53.5q0 32 22.5 54.5t54.5 22.5q31 0 53.5 -22.5t22.5 -54.5q0 -31 -22.5 -53.5t-53.5 -22.5zM282 448q-11 0 -18.5 -7.5t-7.5 -18.5q0 -10 7.5 -17.5t18.5 -7.5q10 0 17.5 7.5t7.5 17.5q0 11 -7.5 18.5t-17.5 7.5zM282 550q-32 0 -54.5 22.5
t-22.5 54.5t22.5 54.5t54.5 22.5q31 0 53.5 -22.5t22.5 -54.5t-22.5 -54.5t-53.5 -22.5zM282 653q-11 0 -18.5 -7.5t-7.5 -18.5q0 -10 7.5 -17.5t18.5 -7.5q10 0 17.5 7.5t7.5 17.5q0 11 -7.5 18.5t-17.5 7.5zM691 550q-32 0 -54.5 22.5t-22.5 54.5t22.5 54.5t54.5 22.5
t54.5 -22.5t22.5 -54.5t-22.5 -54.5t-54.5 -22.5zM691 653q-10 0 -17.5 -7.5t-7.5 -18.5q0 -10 7.5 -17.5t17.5 -7.5q11 0 18.5 7.5t7.5 17.5q0 11 -7.5 18.5t-18.5 7.5zM691 346q-32 0 -54.5 22.5t-22.5 53.5q0 32 22.5 54.5t54.5 22.5t54.5 -22.5t22.5 -54.5
q0 -31 -22.5 -53.5t-54.5 -22.5zM691 448q-10 0 -17.5 -7.5t-7.5 -18.5q0 -10 7.5 -17.5t17.5 -7.5q11 0 18.5 7.5t7.5 17.5q0 11 -7.5 18.5t-18.5 7.5zM691 141q-32 0 -54.5 22.5t-22.5 54.5q0 31 22.5 53.5t54.5 22.5t54.5 -22.5t22.5 -53.5q0 -32 -22.5 -54.5
t-54.5 -22.5zM691 243q-10 0 -17.5 -7.5t-7.5 -17.5q0 -11 7.5 -18.5t17.5 -7.5q11 0 18.5 7.5t7.5 18.5q0 10 -7.5 17.5t-18.5 7.5zM794 -13h-615q-53 0 -90.5 37.5t-37.5 90.5v615q0 53 37.5 90.5t90.5 37.5h615q53 0 90.5 -37.5t37.5 -90.5v-615q0 -53 -37.5 -90.5
t-90.5 -37.5zM179 806q-32 0 -54.5 -22.5t-22.5 -53.5v-615q0 -32 22.5 -54.5t54.5 -22.5h615q31 0 53.5 22.5t22.5 54.5v615q0 31 -22.5 53.5t-53.5 22.5h-615z" />
    <glyph glyph-name="uniE813" unicode="&#xf813;" 
d="M486 -13q-3 0 -6 1l-6 2q-2 1 -22 14q-21 12 -54 34t-74 53q-42 32 -85 71q-52 46 -92.5 93.5t-70.5 94.5q-38 61 -57 120.5t-19 118.5q0 55 21 104t57.5 85.5t85.5 57.5q49 22 105 22q37 0 76 -14t74 -39q20 -15 37.5 -33t29.5 -37q13 19 30.5 37t37.5 33q35 25 73.5 39
t76.5 14q56 0 105 -22q48 -21 84.5 -57.5t58.5 -85.5q21 -49 21 -104q0 -59 -19 -118.5t-57 -120.5q-30 -47 -71 -94.5t-92 -93.5q-44 -39 -85 -71q-42 -31 -74.5 -53t-53.5 -34q-20 -13 -22 -14l-6 -2zM269 806q-45 0 -85 -17q-39 -17 -69 -46.5t-47 -69.5q-17 -39 -17 -84
q0 -59 21 -114q20 -55 52 -104.5t71 -92.5q40 -43 77 -78q68 -61 129 -102t85 -56q25 15 86 56t128 102q38 35 78 78q39 43 71 92.5t52 104.5q21 55 21 114q0 45 -18 84q-17 40 -46.5 69.5t-68.5 46.5q-40 17 -85 17q-65 0 -121 -43.5t-72 -92.5q-3 -8 -9.5 -12.5
t-15.5 -4.5q-8 0 -14.5 4.5t-9.5 12.5q-16 49 -72 92.5t-121 43.5z" />
    <glyph glyph-name="uniE814" unicode="&#xf814;" 
d="M794 -13q-4 0 -7 1l-6 2l-269 147l-269 -147q-7 -3 -14 -2.5t-13 4.5t-9 11t-2 14l49 294l-195 196q-5 5 -7 12t0 14q3 6 8 11t13 6l294 49l122 244q3 7 9.5 11t13.5 4t13.5 -4t9.5 -11l122 -244l294 -49q8 -1 13 -6t8 -11q2 -7 0 -14t-7 -12l-195 -196l49 -294
q1 -7 -2 -14t-9 -11q-3 -2 -6.5 -3.5t-7.5 -1.5zM512 192q3 0 6 -1l6 -2l236 -129l-43 256q-1 6 1 12t6 10l170 170l-258 43q-6 1 -11 4.5t-8 9.5l-105 210l-105 -210q-3 -6 -8 -9.5t-11 -4.5l-258 -43l170 -170q4 -4 6 -10t1 -12l-43 -256l236 129l6 2z" />
    <glyph glyph-name="uniE815" unicode="&#xf815;" 
d="M794 -13q-4 0 -7 1l-6 2l-153 84q-10 5 -13 15.5t3 19.5q5 9 15 12t19 -2l108 -59l-9 51q-1 10 5 19t16 10q11 2 19.5 -4t10.5 -17l17 -102q1 -7 -2 -14t-9 -11q-3 -2 -6.5 -3.5t-7.5 -1.5zM759 192q-9 0 -16 6t-9 15l-17 103q-1 6 1 12t6 10l51 51q8 8 18.5 8t18.5 -8
q7 -7 7 -17.5t-7 -18.5l-42 -42l15 -89q1 -11 -5 -19.5t-16 -10.5h-5zM896 448q-5 0 -9.5 2t-8.5 5q-8 8 -8 18.5t8 18.5l16 16l-105 17q-10 2 -16 10.5t-5 19.5q2 10 10.5 16t19.5 5l153 -26q8 -1 13 -6t8 -11q2 -7 0 -14t-7 -12l-51 -51q-4 -4 -8.5 -6t-9.5 -2zM691 542
h-4l-51 9q-6 1 -11 4.5t-8 9.5l-51 102q-5 9 -1.5 19.5t12.5 14.5q10 5 20 1.5t15 -12.5l45 -91l38 -6q11 -2 17 -10.5t4 -19.5q-1 -9 -8.5 -15t-16.5 -6zM230 -13q-4 0 -7.5 1.5t-6.5 3.5q-6 4 -9 11t-2 14l49 294l-195 196q-5 5 -7 12t0 14q3 6 8 11t13 6l294 49l122 244
q3 7 9.5 11t13.5 4t13.5 -4t9.5 -11l25 -51q5 -9 2 -19t-13 -15q-9 -5 -19.5 -1.5t-14.5 12.5l-3 6l-105 -210q-3 -6 -8 -9.5t-11 -4.5l-258 -43l170 -170q4 -4 6 -10t1 -12l-43 -256l236 129q5 3 12 3t12 -3l26 -14q9 -5 12 -15.5t-2 -19.5t-15 -12t-20 2l-13 7l-269 -147
l-6 -2z" />
    <glyph glyph-name="uniE816" unicode="&#xf816;" 
d="M282 533q-10 0 -17 6t-9 16q-1 10 5 18.5t16 10.5l90 15l20 40q4 9 14.5 12.5t19.5 -1.5q10 -5 13 -15t-2 -19l-25 -51q-3 -6 -8 -9.5t-11 -4.5l-102 -17q-1 0 -2 -0.5t-2 -0.5zM128 448q-5 0 -9.5 2t-8.5 5l-51 52q-5 5 -7 12t0 14q3 6 8 11t13 6l102 17q10 2 19 -4
t10 -17q2 -10 -4 -19t-17 -10l-53 -9l16 -16q8 -8 8 -18.5t-8 -18.5q-4 -3 -8.5 -5t-9.5 -2zM759 192q-9 0 -16 6t-9 15l-17 103q-1 6 1 12t6 10l51 51q8 8 18.5 8t18.5 -8q7 -7 7 -17.5t-7 -18.5l-42 -42l15 -89q1 -11 -5 -19.5t-16 -10.5h-5zM794 -13q-4 0 -7 1l-6 2
l-153 84q-10 5 -13 15.5t3 19.5q5 9 15 12t19 -2l108 -59l-9 51q-1 10 5 19t16 10q11 2 19.5 -4t10.5 -17l17 -102q1 -7 -2 -14t-9 -11q-3 -2 -6.5 -3.5t-7.5 -1.5zM273 243h-2l-2 1q-11 1 -17 10t-4 19l6 38l-42 42q-7 8 -7 18.5t7 17.5q8 8 18.5 8t18.5 -8l51 -51
q4 -4 6 -10t1 -12l-9 -51q-1 -10 -8.5 -16t-16.5 -6zM230 -13q-4 0 -7.5 1.5t-6.5 3.5q-6 4 -9 11t-2 14l26 154q1 10 10 16t19 5q11 -2 17 -10.5t4 -19.5l-17 -102l57 31q9 5 19 2t15 -12t2 -19.5t-12 -15.5l-102 -56l-6 -2zM435 99q-7 0 -13 3.5t-9 9.5q-5 10 -2 20t12 15
l77 42q5 3 12 3t12 -3l26 -14q9 -5 12 -15.5t-2 -19.5t-15 -12t-20 2l-13 7l-65 -35q-2 -2 -5.5 -2.5t-6.5 -0.5zM896 448q-5 0 -9.5 2t-8.5 5q-8 8 -8 18.5t8 18.5l16 16l-105 17q-10 2 -16 10.5t-5 19.5q2 10 10.5 16t19.5 5l153 -26q8 -1 13 -6t8 -11q2 -7 0 -14t-7 -12
l-51 -51q-4 -4 -8.5 -6t-9.5 -2zM691 542h-4l-51 9q-6 1 -11 4.5t-8 9.5l-51 102q-5 9 -1.5 19.5t12.5 14.5q10 5 20 1.5t15 -12.5l45 -91l38 -6q11 -2 17 -10.5t4 -19.5q-1 -9 -8.5 -15t-16.5 -6zM461 704q-3 0 -6 0.5t-6 2.5q-9 4 -12.5 14.5t1.5 19.5l51 102q3 7 9.5 11
t13.5 4t13.5 -4t9.5 -11l25 -51q5 -9 2 -19t-13 -15q-9 -5 -19.5 -1.5t-14.5 12.5l-3 6l-28 -57q-4 -7 -10 -10.5t-13 -3.5z" />
    <glyph glyph-name="uniE817" unicode="&#xf817;" 
d="M77 -13q-11 0 -18.5 7.5t-7.5 18.5v768q0 10 7.5 17.5t18.5 7.5q10 0 17.5 -7.5t7.5 -17.5v-768q0 -11 -7.5 -18.5t-17.5 -7.5zM179 448q-4 0 -8 1.5t-7 3.5q-9 6 -10.5 16.5t5.5 19.5q2 3 58 58t141 55q65 0 111 -19t84 -39q34 -18 65.5 -31.5t72.5 -13.5q42 0 78 18
t66 46t54 61q23 34 40 66q-27 -16 -61 -26.5t-74 -10.5q-85 0 -135 35.5t-88 74.5q-38 38 -78 66.5t-109 28.5q-85 0 -134.5 -46t-49.5 -47q-7 -8 -17.5 -9.5t-18.5 4.5q-9 7 -10.5 17.5t5.5 18.5q1 2 17 20t44.5 38.5t70.5 37.5q41 17 93 17q85 0 134.5 -35.5t88.5 -74.5
q38 -38 78 -66.5t109 -28.5q85 0 134 45.5t50 46.5q6 8 15 10t17 -3q9 -4 12.5 -12.5t0.5 -17.5q-1 -3 -21 -52t-59 -108q-24 -35 -49.5 -63t-52.5 -49q-35 -26 -73 -39.5t-77 -13.5q-50 0 -88.5 16t-73.5 35q-37 20 -76 35.5t-95 15.5q-66 0 -112 -45.5t-46 -46.5
q-4 -5 -9.5 -7.5t-11.5 -2.5z" />
    <glyph glyph-name="uniE818" unicode="&#xf818;" 
d="M896 653h-819q-32 0 -54.5 -22.5t-22.5 -54.5v-461q0 -32 22.5 -54.5t54.5 -22.5h819q32 0 54.5 22.5t22.5 54.5v461q0 32 -22.5 54.5t-54.5 22.5zM896 602q1 0 2 -0.5t2 -0.5l-385 -257q-11 -7 -28.5 -7t-28.5 7l-386 257q1 0 2.5 0.5t2.5 0.5h819zM896 90h-819
q-11 0 -18.5 7.5t-7.5 17.5v439l379 -253q12 -7 26.5 -11t29.5 -4q16 0 30.5 4t26.5 11l379 253v-439q0 -10 -7.5 -17.5t-18.5 -7.5z" />
    <glyph glyph-name="uniE819" unicode="&#xf819;" 
d="M486 -64q-47 0 -89 18t-73.5 49.5t-49.5 73.5t-18 89v615q0 74 52.5 126.5t126.5 52.5t126.5 -52.5t52.5 -126.5v-563q0 -53 -37.5 -90.5t-90.5 -37.5t-90.5 37.5t-37.5 90.5v307q0 10 7.5 17.5t18.5 7.5t18.5 -7.5t7.5 -17.5v-307q0 -32 22.5 -54.5t53.5 -22.5
q32 0 54.5 22.5t22.5 54.5v563q0 53 -37.5 90.5t-90.5 37.5t-90.5 -37.5t-37.5 -90.5v-615q0 -74 52.5 -126.5t126.5 -52.5q75 0 127.5 52.5t52.5 126.5v359q0 10 7.5 17.5t17.5 7.5q11 0 18.5 -7.5t7.5 -17.5v-359q0 -47 -18 -89t-49.5 -73.5t-73.5 -49.5t-90 -18z" />
    <glyph glyph-name="uniE81A" unicode="&#xf81a;" 
d="M1001 428l-138 316q-11 26 -38.5 44t-56.5 18h-512q-29 0 -56.5 -18t-38.5 -44l-138 -316q-10 -21 -16.5 -52.5t-6.5 -55.5v-205q0 -32 22.5 -54.5t54.5 -22.5h870q32 0 54.5 22.5t22.5 54.5v205q0 24 -6.5 55.5t-16.5 52.5zM208 724q5 12 19.5 21.5t28.5 9.5h512
q14 0 28.5 -9.5t19.5 -21.5l138 -316q2 -3 3 -6l2 -6q-3 0 -6 0.5t-6 0.5h-307q-11 0 -18.5 -7.5t-7.5 -18.5v-25q0 -43 -30 -73t-72 -30t-72 30t-30 73v25q0 11 -7.5 18.5t-18.5 7.5h-307q-3 0 -6 -0.5t-6 -0.5l2 6l3 6zM973 115q0 -10 -7.5 -17.5t-18.5 -7.5h-870
q-11 0 -18.5 7.5t-7.5 17.5v205q0 11 7.5 18.5t18.5 7.5h281q0 -64 45 -109t109 -45t109 45t45 109h281q11 0 18.5 -7.5t7.5 -18.5v-205z" />
    <glyph glyph-name="uniE81B" unicode="&#xf81b;" 
d="M1017 440q-1 2 -42 42.5t-109 88.5q-40 29 -80.5 52t-79.5 39q-50 21 -99 31.5t-95 10.5t-95 -10.5t-99 -31.5q-39 -16 -79.5 -39t-80.5 -52q-68 -48 -109 -88.5t-42 -42.5q-7 -8 -7 -17.5t7 -17.5q1 -2 42 -42.5t109 -88.5q40 -29 80.5 -52t79.5 -39q50 -21 99 -31.5
t95 -10.5t95 10.5t99 31.5q39 16 79.5 39t80.5 52q68 48 109 88.5t42 42.5q7 8 7 17.5t-7 17.5zM644 630q35 -29 54 -70t19 -86q0 -43 -16 -80t-44 -65t-65 -44q-38 -16 -80 -16t-80 16q-37 16 -65 44t-44 65t-16 80q0 45 19 86t54 70q32 11 65 17t67 6t67 -6t65 -17z
M835 315q-29 -21 -66 -43q-36 -22 -77.5 -39.5t-87.5 -29.5q-45 -11 -92 -11t-92 11q-46 12 -87.5 29.5t-77.5 39.5q-37 22 -66 43q-45 31 -78 60.5t-50 46.5q17 18 50 47.5t78 60.5q20 15 44 30t50 29q-13 -27 -20 -56t-7 -59q0 -53 20 -100t55 -81.5t81 -54.5
q47 -20 100 -20t100 20q46 20 81 54.5t55 81.5t20 100q0 30 -7 59t-20 56q26 -14 50 -29t44 -30q45 -31 78 -60.5t50 -47.5q-17 -17 -50 -46.5t-78 -60.5z" />
    <glyph glyph-name="uniE81C" unicode="&#xf81c;" 
d="M947 755h-77v128q0 32 -22.5 54.5t-53.5 22.5h-564q-31 0 -53.5 -22.5t-22.5 -54.5v-128h-77q-32 0 -54.5 -22.5t-22.5 -54.5v-460q0 -32 22.5 -54.5t54.5 -22.5h77v-128q0 -32 22.5 -54.5t53.5 -22.5h564q31 0 53.5 22.5t22.5 54.5v128h77q32 0 54.5 22.5t22.5 54.5v460
q0 32 -22.5 54.5t-54.5 22.5zM205 883q0 11 7.5 18.5t17.5 7.5h564q10 0 17.5 -7.5t7.5 -18.5v-128h-614v128zM794 -13h-564q-10 0 -17.5 7.5t-7.5 18.5v333h614v-333q0 -11 -7.5 -18.5t-17.5 -7.5zM973 218q0 -11 -7.5 -18.5t-18.5 -7.5h-77v154h26q11 0 18.5 7.5t7.5 17.5
q0 11 -7.5 18.5t-18.5 7.5h-768q-11 0 -18.5 -7.5t-7.5 -18.5q0 -10 7.5 -17.5t18.5 -7.5h26v-154h-77q-11 0 -18.5 7.5t-7.5 18.5v460q0 11 7.5 18.5t18.5 7.5h870q11 0 18.5 -7.5t7.5 -18.5v-460zM742 243h-460q-11 0 -18.5 7.5t-7.5 18.5q0 10 7.5 17.5t18.5 7.5h460
q11 0 18.5 -7.5t7.5 -17.5q0 -11 -7.5 -18.5t-18.5 -7.5zM742 141h-460q-11 0 -18.5 7.5t-7.5 17.5q0 11 7.5 18.5t18.5 7.5h460q11 0 18.5 -7.5t7.5 -18.5q0 -10 -7.5 -17.5t-18.5 -7.5zM742 38h-460q-11 0 -18.5 7.5t-7.5 18.5t7.5 18.5t18.5 7.5h460q11 0 18.5 -7.5
t7.5 -18.5t-7.5 -18.5t-18.5 -7.5zM845 499q-32 0 -54.5 22.5t-22.5 54.5t22.5 54.5t54.5 22.5t54.5 -22.5t22.5 -54.5t-22.5 -54.5t-54.5 -22.5zM845 602q-11 0 -18.5 -7.5t-7.5 -18.5t7.5 -18.5t18.5 -7.5q10 0 17.5 7.5t7.5 18.5t-7.5 18.5t-17.5 7.5z" />
    <glyph glyph-name="uniE81D" unicode="&#xf81d;" 
d="M914 671l-230 230q-4 4 -8.5 6t-9.5 2h-487q-32 0 -54.5 -22.5t-22.5 -54.5v-819q0 -32 22.5 -54.5t54.5 -22.5h666q32 0 54.5 22.5t22.5 54.5v640q0 5 -2 9.5t-6 8.5zM860 653h-169q-10 0 -17.5 7.5t-7.5 17.5v169zM870 13q0 -11 -7.5 -18.5t-17.5 -7.5h-666
q-10 0 -17.5 7.5t-7.5 18.5v819q0 11 7.5 18.5t17.5 7.5h435v-180q0 -31 22.5 -53.5t54.5 -22.5h179v-589z" />
    <glyph glyph-name="uniE81E" unicode="&#xf81e;" 
d="M914 671l-230 230q-4 4 -8.5 6t-9.5 2h-487q-32 0 -54.5 -22.5t-22.5 -54.5v-819q0 -32 22.5 -54.5t54.5 -22.5h666q32 0 54.5 22.5t22.5 54.5v640q0 5 -2 9.5t-6 8.5zM860 653h-169q-10 0 -17.5 7.5t-7.5 17.5v169zM845 -13h-666q-10 0 -17.5 7.5t-7.5 18.5v819
q0 11 7.5 18.5t17.5 7.5h435v-180q0 -31 22.5 -53.5t54.5 -22.5h179v-589q0 -11 -7.5 -18.5t-17.5 -7.5zM589 294h-128v128q0 11 -7.5 18.5t-18.5 7.5q-10 0 -17.5 -7.5t-7.5 -18.5v-128h-128q-11 0 -18.5 -7.5t-7.5 -17.5q0 -11 7.5 -18.5t18.5 -7.5h128v-128
q0 -10 7.5 -17.5t17.5 -7.5q11 0 18.5 7.5t7.5 17.5v128h128q10 0 17.5 7.5t7.5 18.5q0 10 -7.5 17.5t-17.5 7.5z" />
    <glyph glyph-name="uniE81F" unicode="&#xf81f;" 
d="M896 858h-461q-32 0 -54.5 -22.5t-22.5 -54.5v-154q0 -10 7.5 -17.5t18.5 -7.5t18.5 7.5t7.5 17.5v154q0 10 7.5 17.5t17.5 7.5h387l-196 -84q-27 -11 -45 -38.5t-18 -56.5v-486h-128q-10 0 -17.5 7.5t-7.5 17.5v154q0 11 -7.5 18.5t-18.5 7.5t-18.5 -7.5t-7.5 -18.5
v-154q0 -31 22.5 -53.5t54.5 -22.5h128v-77q0 -17 6.5 -30.5t19.5 -21.5q6 -4 14 -6.5t16 -2.5q6 0 13 1.5t14 4.5l264 114q27 11 45 38.5t18 55.5v615q0 32 -22.5 54.5t-54.5 22.5zM922 166q0 -13 -10 -27.5t-22 -19.5l-264 -114q-4 -1 -6.5 -1.5t-2.5 0.5q-1 0 -2 2.5
t-1 6.5v614q0 14 10 28.5t22 19.5l273 117q1 -2 2 -5t1 -6v-615zM428 492l-154 153q-7 8 -18 8t-18 -8q-8 -7 -8 -17.5t8 -18.5l110 -110h-322q-11 0 -18.5 -7.5t-7.5 -17.5q0 -11 7.5 -18.5t18.5 -7.5h322l-110 -110q-8 -7 -8 -18t8 -18q4 -4 8.5 -6t9.5 -2t9.5 2t8.5 6
l154 153q7 8 7 18.5t-7 18.5z" />
    <glyph glyph-name="uniE820" unicode="&#xf820;" 
d="M589 550q10 0 17.5 7.5t7.5 18.5v205q0 32 -22.5 54.5t-53.5 22.5h-461q-32 0 -54.5 -22.5t-22.5 -54.5v-615q0 -28 18 -55.5t45 -38.5l264 -114q7 -3 13.5 -4.5t13.5 -1.5q8 0 16 2.5t14 6.5q12 8 19 21.5t7 30.5v77h128q31 0 53.5 22.5t22.5 53.5v205q0 11 -7.5 18.5
t-17.5 7.5q-11 0 -18.5 -7.5t-7.5 -18.5v-205q0 -10 -7.5 -17.5t-17.5 -7.5h-128v486q0 29 -18.5 56.5t-44.5 38.5l-197 84h388q10 0 17.5 -7.5t7.5 -17.5v-205q0 -11 7.5 -18.5t18.5 -7.5zM327 675q12 -5 21.5 -19.5t9.5 -28.5v-614q0 -4 -0.5 -6.5t-1.5 -2.5q-1 -1 -3 0
l-6 1l-264 114q-13 5 -22.5 19.5t-9.5 27.5v615q0 3 1 6t2 5zM940 492l-154 153q-7 8 -18 8t-18 -8q-8 -7 -8 -17.5t8 -18.5l110 -110h-322q-11 0 -18.5 -7.5t-7.5 -17.5q0 -11 7.5 -18.5t18.5 -7.5h322l-110 -110q-8 -7 -8 -18t8 -18q4 -4 8.5 -6t9.5 -2t9.5 2t8.5 6
l154 153q7 8 7 18.5t-7 18.5z" />
    <glyph glyph-name="uniE821" unicode="&#xf821;" 
d="M955 600l-461 154q-3 1 -7.5 1t-8.5 -1l-460 -154q-8 -2 -13 -9t-5 -15t5 -15t13 -9l136 -46v-135q0 -5 1.5 -9.5t5.5 -8.5q2 -2 23 -19t61.5 -37.5t100.5 -36.5q61 -17 140 -17q58 0 112 10.5t103 31.5q10 4 14 13.5t0 19.5t-14 14t-20 0q-44 -19 -93 -28.5t-102 -9.5
q-74 0 -128.5 16t-87.5 32q-25 12 -41 23t-24 18v106l273 -91q2 -1 4 -1h8l4 1l274 91v-45q-22 -8 -36.5 -28t-14.5 -45q0 -23 12.5 -42t32.5 -28l-44 -180q-2 -5 -0.5 -11t4.5 -11q4 -4 9 -6.5t11 -2.5h103q6 0 11 2.5t9 6.5q4 5 5 11t0 11l-45 180q20 9 32.5 28t12.5 42
q0 25 -14 45t-37 28v62l136 46q8 2 13 9t5 15t-5 15t-13 9zM794 397q10 0 17.5 -7.5t7.5 -18.5q0 -10 -7.5 -17.5t-17.5 -7.5q-11 0 -18.5 7.5t-7.5 17.5q0 11 7.5 18.5t18.5 7.5zM775 141l19 73l18 -73h-37zM792 551l-301 50q-11 2 -19.5 -4t-10.5 -17q-2 -10 4.5 -19
t16.5 -10l206 -35l-202 -67l-379 127l379 127l380 -127z" />
    <glyph glyph-name="uniE822" unicode="&#xf822;" 
d="M947 38h-870q-32 0 -54.5 22.5t-22.5 54.5v666q0 32 22.5 54.5t54.5 22.5h870q32 0 54.5 -22.5t22.5 -54.5v-666q0 -32 -22.5 -54.5t-54.5 -22.5zM77 806q-11 0 -18.5 -7.5t-7.5 -17.5v-666q0 -10 7.5 -17.5t18.5 -7.5h870q11 0 18.5 7.5t7.5 17.5v666q0 10 -7.5 17.5
t-18.5 7.5h-870zM486 653h-307q-10 0 -17.5 7.5t-7.5 17.5q0 11 7.5 18.5t17.5 7.5h307q11 0 18.5 -7.5t7.5 -18.5q0 -10 -7.5 -17.5t-18.5 -7.5zM486 499h-307q-10 0 -17.5 7.5t-7.5 18.5q0 10 7.5 17.5t17.5 7.5h307q11 0 18.5 -7.5t7.5 -17.5q0 -11 -7.5 -18.5
t-18.5 -7.5zM486 397h-307q-10 0 -17.5 7.5t-7.5 17.5q0 11 7.5 18.5t17.5 7.5h307q11 0 18.5 -7.5t7.5 -18.5q0 -10 -7.5 -17.5t-18.5 -7.5zM486 294h-307q-10 0 -17.5 7.5t-7.5 18.5t7.5 18.5t17.5 7.5h307q11 0 18.5 -7.5t7.5 -18.5t-7.5 -18.5t-18.5 -7.5zM435 192h-256
q-10 0 -17.5 7.5t-7.5 18.5q0 10 7.5 17.5t17.5 7.5h256q11 0 18.5 -7.5t7.5 -17.5q0 -11 -7.5 -18.5t-18.5 -7.5zM919 625l-42 30l-16 49h-51l-42 30l-42 -30h-51l-16 -49l-42 -30l16 -49l-16 -49l42 -30l7 -21v-258q0 -8 4 -14.5t11 -9.5q8 -3 15.5 -1.5t12.5 6.5l59 59
l59 -59q3 -3 8 -5t10 -2q2 0 4.5 0.5t5.5 1.5q7 3 11 9.5t4 14.5v258l7 21l42 30l-16 49zM678 605l25 19l9 29h31l25 18l25 -18h31l9 -29l25 -19l-9 -29l9 -29l-25 -19l-9 -29h-31l-25 -18l-25 18h-31l-9 29l-25 19l9 29zM786 313q-7 7 -18 7t-18 -7l-33 -34v169h9l42 -30
l42 30h9v-169z" />
    <glyph glyph-name="uniE823" unicode="&#xf823;" 
d="M1015 903q-5 4 -10.5 5t-10.5 0l-563 -102q-10 -2 -15.5 -9t-5.5 -16v-584q-6 4 -11.5 7t-11.5 7q-32 15 -72.5 23.5t-84.5 8.5t-84 -8.5t-72 -23.5q-36 -18 -55 -43t-19 -53t19 -52.5t55 -42.5q32 -16 72 -24.5t84 -8.5t84.5 8.5t72.5 24.5q36 18 55 42.5t19 52.5v516
l512 95v-426q-5 3 -11 6.5t-12 6.5q-32 16 -72 24.5t-84 8.5t-84.5 -8.5t-72.5 -24.5q-36 -18 -55 -42.5t-19 -52.5q0 -29 19 -53.5t55 -42.5q32 -16 72.5 -24t84.5 -8t84 8t72 24q36 18 55 42.5t19 53.5v665q0 6 -2.5 11t-6.5 9zM230 38q-77 0 -128 25t-51 52t51 52t128 25
t128.5 -25t51.5 -52t-51.5 -52t-128.5 -25zM461 684v75l512 94v-75zM794 141q-77 0 -128.5 24.5t-51.5 52.5q0 27 51.5 51.5t128.5 24.5t128 -24.5t51 -51.5q0 -28 -51 -52.5t-128 -24.5z" />
    <glyph glyph-name="uniE824" unicode="&#xf824;" 
d="M384 192q-3 0 -6 0.5t-5 2.5q-7 3 -11 9t-4 14v460q0 8 4 14t11 9q6 4 13.5 3t12.5 -5l308 -231q4 -3 7 -8.5t3 -11.5t-3 -11.5t-7 -8.5l-308 -231q-3 -2 -7 -3.5t-8 -1.5zM410 627v-358l239 179zM998 858h-972q-11 0 -18.5 -7.5t-7.5 -18.5v-768q0 -11 7.5 -18.5
t18.5 -7.5h972q11 0 18.5 7.5t7.5 18.5v768q0 11 -7.5 18.5t-18.5 7.5zM154 397h-103v102h103v-102zM154 550h-103v103h103v-103zM51 346h103v-103h-103v103zM205 806h614v-716h-614v716zM870 499h103v-102h-103v102zM870 550v103h103v-103h-103zM870 346h103v-103h-103v103
zM973 704h-103v102h103v-102zM154 806v-102h-103v102h103zM51 192h103v-102h-103v102zM870 90v102h103v-102h-103z" />
    <glyph glyph-name="uniE825" unicode="&#xf825;" 
d="M979 87q-9 0 -18 3.5t-19 11.5l-176 140q-21 17 -35 46.5t-14 57.5v153q0 27 14 56.5t35 46.5l176 141q10 8 19 11.5t18 3.5q17 0 31 -13t14 -41v-563q0 -11 -2.5 -20t-7.5 -16q-6 -9 -15 -13.5t-20 -4.5zM973 702l-175 -140q-12 -9 -21 -28.5t-9 -34.5v-153q0 -16 9 -35
t21 -29l175 -139v559zM589 90h-512q-32 0 -54.5 22.5t-22.5 53.5v512q0 32 22.5 54.5t54.5 22.5h512q32 0 54.5 -22.5t22.5 -54.5v-512q0 -31 -22.5 -53.5t-54.5 -22.5zM77 704q-11 0 -18.5 -7.5t-7.5 -18.5v-512q0 -10 7.5 -17.5t18.5 -7.5h512q10 0 17.5 7.5t7.5 17.5v512
q0 11 -7.5 18.5t-17.5 7.5h-512z" />
    <glyph glyph-name="uniE826" unicode="&#xf826;" 
d="M486 192q-47 0 -89 18t-73.5 49.5t-49.5 73.5t-18 89q0 48 18 90t49.5 73.5t73.5 49.5t89 18q48 0 90 -18t73.5 -49.5t49.5 -73.5t18 -90q0 -47 -18 -89t-49.5 -73.5t-73.5 -49.5t-90 -18zM486 602q-74 0 -126.5 -52.5t-52.5 -127.5q0 -74 52.5 -126.5t126.5 -52.5
q75 0 127.5 52.5t52.5 126.5q0 75 -52.5 127.5t-127.5 52.5zM896 38h-819q-32 0 -54.5 22.5t-22.5 54.5v512q0 32 22.5 54.5t54.5 22.5h77q16 0 37 8.5t32 20.5l30 30q19 18 49 30.5t56 12.5h256q27 0 57 -12.5t49 -30.5l30 -30q11 -12 32 -20.5t37 -8.5h77q32 0 54.5 -22.5
t22.5 -54.5v-512q0 -32 -22.5 -54.5t-54.5 -22.5zM77 653q-11 0 -18.5 -7.5t-7.5 -18.5v-512q0 -10 7.5 -17.5t18.5 -7.5h819q11 0 18.5 7.5t7.5 17.5v512q0 11 -7.5 18.5t-18.5 7.5h-77q-26 0 -56.5 12.5t-48.5 31.5l-30 29q-12 12 -33 20.5t-37 8.5h-256q-16 0 -37 -8.5
t-32 -20.5l-30 -29q-19 -19 -49 -31.5t-56 -12.5h-77z" />
    <glyph glyph-name="uniE827" unicode="&#xf827;" 
d="M947 -64h-870q-32 0 -54.5 22.5t-22.5 54.5v870q0 32 22.5 54.5t54.5 22.5h870q32 0 54.5 -22.5t22.5 -54.5v-870q0 -32 -22.5 -54.5t-54.5 -22.5zM77 909q-11 0 -18.5 -7.5t-7.5 -18.5v-870q0 -11 7.5 -18.5t18.5 -7.5h870q11 0 18.5 7.5t7.5 18.5v870q0 11 -7.5 18.5
t-18.5 7.5h-870zM666 499q-43 0 -73 30t-30 73q0 42 30 72t73 30q42 0 72 -30t30 -72q0 -43 -30 -73t-72 -30zM666 653q-22 0 -37 -15t-15 -36q0 -22 15 -37t37 -15q21 0 36 15t15 37q0 21 -15 36t-36 15zM896 858h-768q-11 0 -18.5 -7.5t-7.5 -18.5v-614q0 -11 7.5 -18.5
t18.5 -7.5h768q11 0 18.5 7.5t7.5 18.5v614q0 11 -7.5 18.5t-18.5 7.5zM154 361l164 185q3 4 7 6t8 2q5 0 9 -2t7 -5l283 -304h-478v118zM870 243h-168l-316 339q-10 11 -24 17t-29 6q-16 0 -29.5 -6.5t-23.5 -18.5l-126 -141v367h716v-563z" />
    <glyph glyph-name="uniE828" unicode="&#xf828;" 
d="M742 38h-512q-10 0 -17.5 7.5t-7.5 18.5t7.5 18.5t17.5 7.5h512q11 0 18.5 -7.5t7.5 -18.5t-7.5 -18.5t-18.5 -7.5zM845 806q-11 0 -18.5 -7.5t-7.5 -17.5v-768q0 -11 -7.5 -18.5t-17.5 -7.5h-564q-31 0 -53.5 22.5t-22.5 54.5t22.5 54.5t53.5 22.5h461q32 0 54.5 22.5
t22.5 54.5v614q0 32 -22.5 54.5t-54.5 22.5h-512q-32 0 -54.5 -22.5t-22.5 -54.5v-768q0 -53 37.5 -90.5t90.5 -37.5h564q31 0 53.5 22.5t22.5 54.5v768q0 10 -7.5 17.5t-17.5 7.5zM179 858h512q11 0 18.5 -7.5t7.5 -18.5v-614q0 -11 -7.5 -18.5t-18.5 -7.5h-461
q-21 0 -40.5 -7t-35.5 -19v666q0 11 7.5 18.5t17.5 7.5z" />
    <glyph glyph-name="uniE829" unicode="&#xf829;" 
d="M794 -64q-6 0 -11 2.5t-9 6.5l-288 336l-287 -336q-6 -6 -13.5 -8t-15.5 1q-7 2 -11.5 9t-4.5 15v921q0 11 7.5 18.5t17.5 7.5h615q10 0 17.5 -7.5t7.5 -18.5v-921q0 -8 -4.5 -15t-12.5 -9q-2 -1 -4 -1.5t-4 -0.5zM486 346q6 0 11 -2.5t9 -6.5l262 -306v827h-563v-827
l262 306q4 4 9 6.5t10 2.5z" />
    <glyph glyph-name="uniE82A" unicode="&#xf82a;" 
d="M486 397q-58 0 -109 22t-89.5 60.5t-60.5 89.5t-22 109q0 59 22 110t60.5 89.5t89.5 60.5t109 22q59 0 110 -22t89.5 -60.5t60.5 -89.5t22 -110q0 -58 -22 -109t-60.5 -89.5t-89.5 -60.5t-110 -22zM486 909q-47 0 -89 -18t-73.5 -49.5t-49.5 -73.5t-18 -90q0 -47 18 -89
t49.5 -73.5t73.5 -49.5t89 -18q48 0 90 18t73.5 49.5t49.5 73.5t18 89q0 48 -18 90t-49.5 73.5t-73.5 49.5t-90 18zM896 -64h-819q-32 0 -54.5 22.5t-22.5 54.5q0 2 8 54.5t55 114.5q27 36 64 64.5t83 48.5q56 25 125.5 38t150.5 13q82 0 151.5 -13t125.5 -38
q46 -20 83 -48.5t64 -64.5q47 -62 55 -114.5t8 -54.5q0 -32 -22.5 -54.5t-54.5 -22.5zM486 294q-67 0 -124 -9q-58 -9 -106.5 -26.5t-85.5 -44.5q-38 -26 -65 -61q-39 -52 -47 -96l-7 -44q0 -11 7.5 -18.5t18.5 -7.5h819q11 0 18.5 7.5t7.5 18.5l-8 44l-47 96q-26 35 -64 61
q-38 27 -86 44.5t-106 26.5t-125 9z" />
    <glyph glyph-name="uniE82B" unicode="&#xf82b;" 
d="M947 38h-563q-32 0 -54.5 22.5t-22.5 54.5q0 2 6 39t42 80q20 25 47 44.5t61 33.5q42 17 92.5 25.5t110.5 8.5q59 0 110 -8.5t92 -25.5q34 -14 61.5 -33.5t47.5 -44.5q35 -43 41 -80t6 -39q0 -32 -22.5 -54.5t-54.5 -22.5zM358 115q0 -10 7.5 -17.5t18.5 -7.5h563
q11 0 18.5 7.5t7.5 17.5q0 1 -5.5 29t-32.5 60q-37 44 -106 67t-163 23q-95 0 -163.5 -23t-106.5 -67q-27 -32 -32.5 -60t-5.5 -29zM666 397q-43 0 -80 16t-65 44t-44 65t-16 80q0 42 16 79q16 38 44 65.5t65 43.5t80 16q42 0 79 -16q38 -16 65.5 -43.5t43.5 -65.5
q16 -37 16 -79q0 -43 -16 -80t-43.5 -65t-65.5 -44q-37 -16 -79 -16zM666 755q-64 0 -109 -45t-45 -108q0 -64 45 -109t109 -45q63 0 108 45t45 109q0 63 -45 108t-108 45zM230 38h-153q-32 0 -54.5 22.5t-22.5 54.5q0 2 4.5 30.5t29.5 61.5q14 20 34 35t44 26
q30 13 66 19.5t78 6.5h27q11 -1 18 -9t6 -18q0 -11 -8 -18t-19 -6h-24q-150 0 -177.5 -61.5t-27.5 -66.5q0 -10 7.5 -17.5t18.5 -7.5h153q11 0 18.5 -7.5t7.5 -18.5t-7.5 -18.5t-18.5 -7.5zM256 346q-64 0 -109 45t-45 108q0 64 45 109t109 45t109 -45t45 -109
q0 -63 -45 -108t-109 -45zM256 602q-42 0 -72 -30t-30 -73q0 -42 30 -72t72 -30t72 30t30 72q0 43 -30 73t-72 30z" />
    <glyph glyph-name="uniE82C" unicode="&#xf82c;" 
d="M691 -13h-409q-32 0 -54.5 22.5t-22.5 54.5v476l-120 -39q-10 -4 -19.5 1t-12.5 15l-52 153q-3 9 1 18t12 13l307 154q6 3 13 2.5t12 -3.5q6 -4 9 -9.5t3 -12.5q0 -53 37.5 -90.5t90.5 -37.5t90.5 37.5t37.5 90.5q0 7 3.5 12.5t9.5 9.5q5 3 11.5 3.5t12.5 -2.5l308 -154
q8 -4 12 -13t0 -18l-51 -153q-3 -10 -12.5 -15t-19.5 -1l-120 39v-476q0 -32 -22.5 -54.5t-54.5 -22.5zM230 602q4 0 8 -1.5t7 -3.5q5 -4 8 -9.5t3 -11.5v-512q0 -11 7.5 -18.5t18.5 -7.5h409q11 0 18.5 7.5t7.5 18.5v512q0 6 2.5 11.5t7.5 9.5q5 3 11.5 4t11.5 -1l130 -43
l36 108l-255 128q-13 -60 -62 -100t-113 -40t-112.5 40t-61.5 100l-255 -128l36 -108l129 43q2 1 4 1.5t4 0.5z" />
    <glyph glyph-name="uniE82D" unicode="&#xf82d;" 
d="M922 474v51q0 3 -1 6t-2 5l-103 205q-3 7 -9 10.5t-13 3.5h-615q-7 0 -13 -3.5t-10 -10.5l-102 -205q-1 -2 -2 -5t-1 -6v-51q0 -32 14 -58.5t37 -44.5v-333h-25q-11 0 -18.5 -7.5t-7.5 -17.5q0 -11 7.5 -18.5t18.5 -7.5h819q11 0 18.5 7.5t7.5 18.5q0 10 -7.5 17.5
t-18.5 7.5h-26v333q24 18 38 44.5t14 58.5zM589 397q-32 0 -54.5 22.5t-22.5 54.5v25h154v-25q0 -32 -22.5 -54.5t-54.5 -22.5zM102 474v25h154v-25q0 -32 -22.5 -54.5t-54.5 -22.5t-54.5 22.5t-22.5 54.5zM461 704v-154h-147l39 154h108zM620 704l38 -154h-146v154h108z
M307 499h154v-25q0 -32 -22.5 -54.5t-54.5 -22.5t-54.5 22.5t-22.5 54.5v25zM717 499h153v-25q0 -32 -22.5 -54.5t-53.5 -22.5q-32 0 -54.5 22.5t-22.5 54.5v25zM855 550h-144l-38 154h105zM195 704h105l-38 -154h-144zM154 348q6 -1 12.5 -1.5t12.5 -0.5q32 0 58.5 14
t44.5 37q17 -23 44 -37t58 -14t58 14t44 37q14 -19 34 -31.5t43 -17.5v-310h-409v310zM819 38h-205v310q24 5 43.5 17.5t33.5 31.5q18 -23 44.5 -37t58.5 -14q6 0 12.5 0.5t12.5 1.5v-310zM717 218q0 -11 -7.5 -18.5t-18.5 -7.5q-10 0 -17.5 7.5t-7.5 18.5q0 10 7.5 17.5
t17.5 7.5q11 0 18.5 -7.5t7.5 -17.5zM230 192q-5 0 -9.5 2t-8.5 5q-7 8 -7 18.5t7 18.5l51 51q8 7 18.5 7t18.5 -7q7 -8 7 -18.5t-7 -17.5l-51 -52q-4 -3 -9 -5t-10 -2zM282 90q-5 0 -10 1.5t-9 5.5q-7 8 -7 18.5t7 17.5l154 154q8 7 18.5 7t17.5 -7q8 -8 8 -18.5t-8 -17.5
l-153 -154q-4 -4 -8.5 -5.5t-9.5 -1.5zM435 90q-5 0 -9.5 1.5t-8.5 5.5q-7 8 -7 18.5t7 17.5l51 52q8 7 18.5 7t18.5 -7q7 -8 7 -18.5t-7 -18.5l-52 -51q-3 -4 -8 -5.5t-10 -1.5z" />
    <glyph glyph-name="uniE82E" unicode="&#xf82e;" 
d="M410 -64q-43 0 -73 30t-30 72q0 43 30 73t73 30q42 0 72 -30t30 -73q0 -42 -30 -72t-72 -30zM410 90q-22 0 -37 -15t-15 -37q0 -21 15 -36t37 -15q21 0 36 15t15 36q0 22 -15 37t-36 15zM768 -64q-42 0 -72 30t-30 72q0 43 30 73t72 30t72 -30t30 -73q0 -42 -30 -72
t-72 -30zM768 90q-21 0 -36 -15t-15 -37q0 -21 15 -36t36 -15t36 15t15 36q0 22 -15 37t-36 15zM898 731q-10 12 -23.5 18t-29.5 6h-627l-5 31q-5 30 -29.5 51t-55.5 21h-51q-11 0 -18.5 -7.5t-7.5 -18.5t7.5 -18.5t18.5 -7.5h51q12 0 22 -8.5t12 -20.5l86 -513
q5 -30 29.5 -51t55.5 -21h512q10 0 17.5 7.5t7.5 18.5q0 10 -7.5 17.5t-17.5 7.5h-512q-12 0 -22.5 9t-12.5 20l-12 76l510 44q30 3 54 25t28 52l35 206q2 15 -1.5 30t-13.5 26zM862 683l-34 -206q-2 -12 -13 -22t-23 -12l-515 -44l-51 305h619q4 0 8 -1.5t6 -4.5t3 -6.5
t0 -8.5z" />
    <glyph glyph-name="uniE82F" unicode="&#xf82f;" 
d="M384 -17q-15 0 -29 5.5t-25 16.5l-261 261q-11 11 -16.5 25t-5.5 29t5.5 29t16.5 25l440 440q19 19 49 31.5t56 12.5h231q32 0 54.5 -22.5t22.5 -54.5v-231q0 -26 -12.5 -56t-31.5 -49l-440 -440q-11 -11 -25 -16.5t-29 -5.5zM614 806q-16 0 -37 -8.5t-32 -19.5
l-439 -440q-4 -3 -6 -8t-2 -10t2 -10t6 -8l260 -260q3 -4 8 -6t10 -2t10 2t8 6l440 439q11 11 19.5 32t8.5 37v231q0 10 -7.5 17.5t-17.5 7.5h-231zM742 602q-31 0 -53.5 22.5t-22.5 53.5q0 32 22.5 54.5t53.5 22.5q32 0 54.5 -22.5t22.5 -54.5q0 -31 -22.5 -53.5
t-54.5 -22.5zM742 704q-10 0 -17.5 -7.5t-7.5 -18.5q0 -10 7.5 -17.5t17.5 -7.5q11 0 18.5 7.5t7.5 17.5q0 11 -7.5 18.5t-18.5 7.5z" />
    <glyph glyph-name="uniE830" unicode="&#xf830;" 
d="M819 -64q-68 0 -140 19t-147 57q-34 18 -68 39t-67 45.5t-65 52.5q-32 27 -62 57t-57 62t-51.5 65t-45.5 67q-22 34 -39 68q-38 75 -57 147t-19 140q0 44 30 82.5t48 54.5q25 24 61 46t65 22q14 0 31.5 -9.5t39.5 -30.5q16 -15 34 -35t37 -44q11 -14 49.5 -71t38.5 -92
q0 -28 -27 -49.5t-62 -43.5l-26 -16l-23 -16q-11 -9 -14 -13.5t-3 -5.5q18 -45 53 -94t79 -92.5t92 -78.5q49 -35 94 -53q1 0 5.5 3t13.5 14q8 10 16 23l16 26q22 35 43.5 62t49.5 27q35 0 92 -38.5t71 -49.5q24 -19 44 -37t35 -34q21 -22 30.5 -39.5t9.5 -31.5
q0 -29 -22 -65t-46 -61q-16 -18 -54.5 -48.5t-82.5 -30.5zM204 909q-10 0 -35 -13.5t-55 -40.5q-29 -27 -45.5 -53.5t-16.5 -46.5q0 -129 71 -265q72 -136 183.5 -248t247.5 -183q136 -72 265 -72q20 0 46.5 17t53.5 45q27 31 40.5 56t13.5 35q-1 8 -24 35t-78 70
q-48 36 -83 55.5t-45 19.5q-1 0 -5.5 -3t-13.5 -14q-7 -10 -15 -22.5t-16 -25.5q-21 -35 -43.5 -62.5t-51.5 -27.5q-5 0 -9.5 0.5t-9.5 2.5q-50 20 -103 58t-100.5 85.5t-85.5 100.5t-58 103q-5 12 -2 30.5t27 39.5q12 12 28.5 23t33.5 21q13 8 25.5 16t22.5 15
q11 9 14 13.5t3 5.5q0 10 -19.5 45t-55.5 83q-43 55 -70 78t-35 24z" />
    <glyph glyph-name="uniE831" unicode="&#xf831;" 
d="M916 504q-40 0 -98.5 13.5t-81.5 36.5q-14 14 -19 30t-7 30q-3 17 -6.5 24t-10.5 10q-35 15 -82.5 23t-99.5 8q-51 0 -98.5 -8t-81.5 -22q-7 -3 -10 -10t-7 -24q-2 -14 -7 -30.5t-19 -30.5q-12 -12 -35 -21t-43 -14q-26 -6 -52.5 -9.5t-48.5 -3.5q-25 0 -42.5 4.5
t-27.5 14.5q-15 15 -24 35t-11 41q-2 17 4.5 41.5t30.5 48.5q39 39 91.5 69.5t117.5 51.5q60 19 126.5 29.5t135.5 10.5t136 -10.5t128 -30.5q65 -21 118 -51.5t93 -70.5t35 -87.5t-34 -77.5q-10 -10 -27.5 -15t-42.5 -5zM511 731q58 0 110 -9.5t92 -26.5q27 -12 35.5 -33
t11.5 -38q2 -11 4.5 -20t7.5 -14q10 -10 56 -22t88 -12q19 0 26 2t8 3q11 12 18.5 38t-19.5 54q-35 34 -82 62q-47 27 -104 46t-121 29t-132 10t-132 -10q-63 -10 -119 -28.5t-103 -45.5t-81 -61q-11 -12 -16 -24.5t-4 -25.5q1 -12 6 -23.5t14 -19.5q1 -1 8 -3t26 -2
q42 0 87.5 12t55.5 22q5 5 7.5 14t4.5 19q3 18 11.5 39t35.5 33q39 17 91 26t109 9zM845 38h-666q-26 0 -49 10t-40 28q-17 19 -26 42.5t-7 49.5q0 3 10.5 62t54.5 129q26 42 60.5 75t76.5 57q53 30 116.5 44.5t136.5 14.5t136.5 -14.5t116.5 -44.5q42 -24 76.5 -57
t60.5 -75q44 -70 54.5 -129t10.5 -62q2 -26 -7 -49.5t-26 -42.5q-17 -18 -40 -28t-49 -10zM512 499q-60 0 -112 -10q-51 -11 -94.5 -31.5t-78.5 -51.5q-34 -31 -61 -72q-39 -63 -48 -116l-10 -53q-1 -15 4 -29t15 -24q10 -11 23.5 -16.5t28.5 -5.5h666q15 0 28.5 5.5
t23.5 16.5q10 10 15 24t4 29l-10 53l-48 116q-27 41 -61 72q-35 31 -78.5 51.5t-94.5 31.5q-52 10 -112 10zM512 141q-64 0 -109 45t-45 108q0 64 45 109t109 45t109 -45t45 -109q0 -63 -45 -108t-109 -45zM512 397q-42 0 -72 -30t-30 -73q0 -42 30 -72t72 -30t72 30t30 72
q0 43 -30 73t-72 30z" />
    <glyph glyph-name="uniE832" unicode="&#xf832;" 
d="M922 612l-271 271q-8 7 -17 11t-20 4q-10 0 -19.5 -4t-16.5 -11l-15 -15q-11 -11 -18 -28.5t-7 -33.5v-51q0 -5 -3.5 -13.5t-7.5 -11.5l-143 -143q-4 -4 -12 -7.5t-14 -3.5h-51q-16 0 -33 -7t-29 -19l-15 -15q-15 -15 -15 -36t15 -36l80 -80l-253 -329q-6 -8 -5.5 -17.5
t7.5 -16.5q3 -3 8 -5t10 -2q4 0 8 1t7 4l330 254l79 -80q8 -7 17 -11t20 -4q10 0 19.5 4t16.5 11l15 15q11 11 18 28.5t7 33.5v51q0 5 3.5 13.5t7.5 12.5l143 143q4 3 12 6.5t14 3.5h51q16 0 33 7.5t29 18.5l15 15q7 7 11 16.5t4 19.5t-4 19.5t-11 16.5zM217 178l129 169
l39 -39zM870 561q-3 -4 -11.5 -7.5t-13.5 -3.5h-51q-16 0 -33.5 -7t-28.5 -18l-143 -143q-11 -11 -18.5 -28.5t-7.5 -33.5v-51q0 -6 -3.5 -14t-6.5 -12l-15 -15l-271 271l15 15q3 4 11.5 7.5t13.5 3.5h51q16 0 33.5 7t28.5 18l143 143q11 12 18.5 29t7.5 33v51q0 6 3.5 14
t6.5 12l15 15l271 -271z" />
    <glyph glyph-name="uniE833" unicode="&#xf833;" 
d="M512 -64q-6 0 -11 2.5t-9 7.5q-2 3 -46 64.5t-97 159.5q-32 58 -56.5 115t-42.5 111q-22 69 -33.5 133.5t-11.5 123.5q0 63 24 119t66 98t98 66q55 24 119 24t119 -24q56 -24 98 -66t66 -98t24 -119q0 -59 -11.5 -123.5t-33.5 -133.5q-18 -54 -42.5 -111t-56.5 -115
q-53 -98 -97 -159.5t-46 -64.5q-4 -5 -9 -7.5t-11 -2.5zM512 909q-53 0 -100 -20q-46 -20 -81 -55t-55 -82q-20 -46 -20 -99q0 -63 13 -126q12 -63 32 -122t45 -113q24 -54 48 -97q34 -65 66.5 -114.5t51.5 -75.5q19 26 51.5 76t67.5 114q23 44 48 98q24 53 44 112.5
t32 122.5q13 62 13 125q0 53 -20 99q-20 47 -55 82t-81 55q-47 20 -100 20zM512 499q-64 0 -109 45t-45 109q0 63 45 108t109 45t109 -45t45 -108q0 -64 -45 -109t-109 -45zM512 755q-42 0 -72 -30t-30 -72q0 -43 30 -73t72 -30t72 30t30 73q0 42 -30 72t-72 30z" />
    <glyph glyph-name="uniE834" unicode="&#xf834;" 
d="M961 905q-6 3 -12.5 3.5t-12.5 -2.5l-296 -148l-296 148q-5 3 -11 3t-12 -3l-307 -154q-6 -3 -10 -9t-4 -13v-768q0 -7 3 -13t9 -9q3 -2 6.5 -3t7.5 -1q3 0 5.5 0.5t5.5 2.5l296 148l296 -148q5 -3 11 -3t11 3l308 153q6 4 10 10t4 13v768q0 7 -3.5 12.5t-8.5 9.5z
M307 131l-256 -128v711l256 128v-711zM358 842l256 -128v-711l-256 128v711zM922 131l-256 -128v711l256 128v-711z" />
    <glyph glyph-name="uniE835" unicode="&#xf835;" 
d="M435 -64h-3l-3 1q-9 2 -14 9t-5 16v384h-384q-9 0 -16 5t-9 14q-2 8 1 16t11 12l973 564q7 4 15.5 3t15.5 -7q6 -7 7 -15.5t-3 -15.5l-564 -973q-3 -6 -9 -9.5t-13 -3.5zM121 397h314q11 0 18.5 -7.5t7.5 -18.5v-314l467 807z" />
    <glyph glyph-name="uniE836" unicode="&#xf836;" 
d="M947 858h-128v25q0 11 -7.5 18.5t-17.5 7.5q-11 0 -18.5 -7.5t-7.5 -18.5v-25h-512v25q0 11 -7.5 18.5t-18.5 7.5q-10 0 -17.5 -7.5t-7.5 -18.5v-25h-128q-32 0 -54.5 -22.5t-22.5 -54.5v-717q0 -32 22.5 -54.5t54.5 -22.5h870q32 0 54.5 22.5t22.5 54.5v717
q0 32 -22.5 54.5t-54.5 22.5zM77 806h128v-76q0 -11 7.5 -18.5t17.5 -7.5q11 0 18.5 7.5t7.5 18.5v76h512v-76q0 -11 7.5 -18.5t18.5 -7.5q10 0 17.5 7.5t7.5 18.5v76h128q11 0 18.5 -7.5t7.5 -17.5v-128h-922v128q0 10 7.5 17.5t18.5 7.5zM947 38h-870q-11 0 -18.5 7.5
t-7.5 18.5v538h922v-538q0 -11 -7.5 -18.5t-18.5 -7.5zM384 448h-51q-11 0 -18.5 7.5t-7.5 18.5q0 10 7.5 17.5t18.5 7.5h51q11 0 18.5 -7.5t7.5 -17.5q0 -11 -7.5 -18.5t-18.5 -7.5zM538 448h-52q-10 0 -17.5 7.5t-7.5 18.5q0 10 7.5 17.5t17.5 7.5h52q10 0 17.5 -7.5
t7.5 -17.5q0 -11 -7.5 -18.5t-17.5 -7.5zM691 448h-51q-11 0 -18.5 7.5t-7.5 18.5q0 10 7.5 17.5t18.5 7.5h51q11 0 18.5 -7.5t7.5 -17.5q0 -11 -7.5 -18.5t-18.5 -7.5zM845 448h-51q-11 0 -18.5 7.5t-7.5 18.5q0 10 7.5 17.5t18.5 7.5h51q10 0 17.5 -7.5t7.5 -17.5
q0 -11 -7.5 -18.5t-17.5 -7.5zM230 346h-51q-10 0 -17.5 7.5t-7.5 17.5q0 11 7.5 18.5t17.5 7.5h51q11 0 18.5 -7.5t7.5 -18.5q0 -10 -7.5 -17.5t-18.5 -7.5zM384 346h-51q-11 0 -18.5 7.5t-7.5 17.5q0 11 7.5 18.5t18.5 7.5h51q11 0 18.5 -7.5t7.5 -18.5q0 -10 -7.5 -17.5
t-18.5 -7.5zM538 346h-52q-10 0 -17.5 7.5t-7.5 17.5q0 11 7.5 18.5t17.5 7.5h52q10 0 17.5 -7.5t7.5 -18.5q0 -10 -7.5 -17.5t-17.5 -7.5zM691 346h-51q-11 0 -18.5 7.5t-7.5 17.5q0 11 7.5 18.5t18.5 7.5h51q11 0 18.5 -7.5t7.5 -18.5q0 -10 -7.5 -17.5t-18.5 -7.5z
M845 346h-51q-11 0 -18.5 7.5t-7.5 17.5q0 11 7.5 18.5t18.5 7.5h51q10 0 17.5 -7.5t7.5 -18.5q0 -10 -7.5 -17.5t-17.5 -7.5zM230 243h-51q-10 0 -17.5 7.5t-7.5 18.5q0 10 7.5 17.5t17.5 7.5h51q11 0 18.5 -7.5t7.5 -17.5q0 -11 -7.5 -18.5t-18.5 -7.5zM384 243h-51
q-11 0 -18.5 7.5t-7.5 18.5q0 10 7.5 17.5t18.5 7.5h51q11 0 18.5 -7.5t7.5 -17.5q0 -11 -7.5 -18.5t-18.5 -7.5zM538 243h-52q-10 0 -17.5 7.5t-7.5 18.5q0 10 7.5 17.5t17.5 7.5h52q10 0 17.5 -7.5t7.5 -17.5q0 -11 -7.5 -18.5t-17.5 -7.5zM691 243h-51q-11 0 -18.5 7.5
t-7.5 18.5q0 10 7.5 17.5t18.5 7.5h51q11 0 18.5 -7.5t7.5 -17.5q0 -11 -7.5 -18.5t-18.5 -7.5zM845 243h-51q-11 0 -18.5 7.5t-7.5 18.5q0 10 7.5 17.5t18.5 7.5h51q10 0 17.5 -7.5t7.5 -17.5q0 -11 -7.5 -18.5t-17.5 -7.5zM230 141h-51q-10 0 -17.5 7.5t-7.5 17.5
q0 11 7.5 18.5t17.5 7.5h51q11 0 18.5 -7.5t7.5 -18.5q0 -10 -7.5 -17.5t-18.5 -7.5zM384 141h-51q-11 0 -18.5 7.5t-7.5 17.5q0 11 7.5 18.5t18.5 7.5h51q11 0 18.5 -7.5t7.5 -18.5q0 -10 -7.5 -17.5t-18.5 -7.5zM538 141h-52q-10 0 -17.5 7.5t-7.5 17.5q0 11 7.5 18.5
t17.5 7.5h52q10 0 17.5 -7.5t7.5 -18.5q0 -10 -7.5 -17.5t-17.5 -7.5zM691 141h-51q-11 0 -18.5 7.5t-7.5 17.5q0 11 7.5 18.5t18.5 7.5h51q11 0 18.5 -7.5t7.5 -18.5q0 -10 -7.5 -17.5t-18.5 -7.5zM845 141h-51q-11 0 -18.5 7.5t-7.5 17.5q0 11 7.5 18.5t18.5 7.5h51
q10 0 17.5 -7.5t7.5 -18.5q0 -10 -7.5 -17.5t-17.5 -7.5z" />
    <glyph glyph-name="uniE837" unicode="&#xf837;" 
d="M896 141h-819q-32 0 -54.5 22.5t-22.5 54.5v409q0 32 22.5 54.5t54.5 22.5h819q32 0 54.5 -22.5t22.5 -54.5v-409q0 -32 -22.5 -54.5t-54.5 -22.5zM77 653q-11 0 -18.5 -7.5t-7.5 -18.5v-409q0 -11 7.5 -18.5t18.5 -7.5h819q11 0 18.5 7.5t7.5 18.5v409q0 11 -7.5 18.5
t-18.5 7.5h-819zM179 550h-51q-11 0 -18.5 7.5t-7.5 18.5t7.5 18.5t18.5 7.5h51q11 0 18.5 -7.5t7.5 -18.5t-7.5 -18.5t-18.5 -7.5zM845 550h-51q-11 0 -18.5 7.5t-7.5 18.5t7.5 18.5t18.5 7.5h51q10 0 17.5 -7.5t7.5 -18.5t-7.5 -18.5t-17.5 -7.5zM230 448h-102
q-11 0 -18.5 7.5t-7.5 18.5q0 10 7.5 17.5t18.5 7.5h102q11 0 18.5 -7.5t7.5 -17.5q0 -11 -7.5 -18.5t-18.5 -7.5zM179 243h-51q-11 0 -18.5 7.5t-7.5 18.5q0 10 7.5 17.5t18.5 7.5h51q11 0 18.5 -7.5t7.5 -17.5q0 -11 -7.5 -18.5t-18.5 -7.5zM589 243h-307q-11 0 -18.5 7.5
t-7.5 18.5q0 10 7.5 17.5t18.5 7.5h307q10 0 17.5 -7.5t7.5 -17.5q0 -11 -7.5 -18.5t-17.5 -7.5zM742 243h-51q-10 0 -17.5 7.5t-7.5 18.5q0 10 7.5 17.5t17.5 7.5h51q11 0 18.5 -7.5t7.5 -17.5q0 -11 -7.5 -18.5t-18.5 -7.5zM845 346h-154q-10 0 -17.5 7.5t-7.5 17.5
q0 11 7.5 18.5t17.5 7.5h128v77q0 10 7.5 17.5t18.5 7.5q10 0 17.5 -7.5t7.5 -17.5v-103q0 -10 -7.5 -17.5t-17.5 -7.5zM282 346h-154q-11 0 -18.5 7.5t-7.5 17.5q0 11 7.5 18.5t18.5 7.5h154q10 0 17.5 -7.5t7.5 -18.5q0 -10 -7.5 -17.5t-17.5 -7.5zM307 576
q0 -11 -7.5 -18.5t-17.5 -7.5q-11 0 -18.5 7.5t-7.5 18.5t7.5 18.5t18.5 7.5q10 0 17.5 -7.5t7.5 -18.5zM410 576q0 -11 -7.5 -18.5t-18.5 -7.5t-18.5 7.5t-7.5 18.5t7.5 18.5t18.5 7.5t18.5 -7.5t7.5 -18.5zM512 576q0 -11 -7.5 -18.5t-18.5 -7.5q-10 0 -17.5 7.5
t-7.5 18.5t7.5 18.5t17.5 7.5q11 0 18.5 -7.5t7.5 -18.5zM614 576q0 -11 -7.5 -18.5t-17.5 -7.5q-11 0 -18.5 7.5t-7.5 18.5t7.5 18.5t18.5 7.5q10 0 17.5 -7.5t7.5 -18.5zM717 576q0 -11 -7.5 -18.5t-18.5 -7.5q-10 0 -17.5 7.5t-7.5 18.5t7.5 18.5t17.5 7.5
q11 0 18.5 -7.5t7.5 -18.5zM358 474q0 -11 -7.5 -18.5t-17.5 -7.5q-11 0 -18.5 7.5t-7.5 18.5q0 10 7.5 17.5t18.5 7.5q10 0 17.5 -7.5t7.5 -17.5zM461 474q0 -11 -7.5 -18.5t-18.5 -7.5q-10 0 -17.5 7.5t-7.5 18.5q0 10 7.5 17.5t17.5 7.5q11 0 18.5 -7.5t7.5 -17.5z
M563 474q0 -11 -7.5 -18.5t-17.5 -7.5q-11 0 -18.5 7.5t-7.5 18.5q0 10 7.5 17.5t18.5 7.5q10 0 17.5 -7.5t7.5 -17.5zM666 474q0 -11 -7.5 -18.5t-18.5 -7.5t-18.5 7.5t-7.5 18.5q0 10 7.5 17.5t18.5 7.5t18.5 -7.5t7.5 -17.5zM768 474q0 -11 -7.5 -18.5t-18.5 -7.5
q-10 0 -17.5 7.5t-7.5 18.5q0 10 7.5 17.5t17.5 7.5q11 0 18.5 -7.5t7.5 -17.5zM410 371q0 -10 -7.5 -17.5t-18.5 -7.5t-18.5 7.5t-7.5 17.5q0 11 7.5 18.5t18.5 7.5t18.5 -7.5t7.5 -18.5zM512 371q0 -10 -7.5 -17.5t-18.5 -7.5q-10 0 -17.5 7.5t-7.5 17.5q0 11 7.5 18.5
t17.5 7.5q11 0 18.5 -7.5t7.5 -18.5zM614 371q0 -10 -7.5 -17.5t-17.5 -7.5q-11 0 -18.5 7.5t-7.5 17.5q0 11 7.5 18.5t18.5 7.5q10 0 17.5 -7.5t7.5 -18.5z" />
    <glyph glyph-name="uniE838" unicode="&#xf838;" 
d="M230 243q-10 0 -17.5 -7.5t-7.5 -17.5q-16 12 -35.5 18.5t-41.5 6.5q-53 0 -90.5 -37.5t-37.5 -90.5t37.5 -90.5t90.5 -37.5q22 0 41.5 7t35.5 19q0 -11 7.5 -18.5t17.5 -7.5q11 0 18.5 7.5t7.5 18.5v205q0 10 -7.5 17.5t-18.5 7.5zM128 38q-32 0 -54.5 22.5t-22.5 54.5
t22.5 54.5t54.5 22.5t54.5 -22.5t22.5 -54.5t-22.5 -54.5t-54.5 -22.5zM435 243q-21 0 -41 -6.5t-36 -18.5v204q0 11 -7.5 18.5t-17.5 7.5q-11 0 -18.5 -7.5t-7.5 -18.5v-409q0 -11 7.5 -18.5t18.5 -7.5q10 0 17.5 7.5t7.5 18.5q16 -12 36 -19t41 -7q53 0 90.5 37.5
t37.5 90.5t-37.5 90.5t-90.5 37.5zM435 38q-32 0 -54.5 22.5t-22.5 54.5t22.5 54.5t54.5 22.5t54.5 -22.5t22.5 -54.5t-22.5 -54.5t-54.5 -22.5zM742 -13q-53 0 -90.5 37.5t-37.5 90.5t37.5 90.5t90.5 37.5q17 0 33.5 -4.5t30.5 -12.5q10 -5 12.5 -15.5t-2.5 -19.5
q-6 -9 -16 -12t-19 3q-9 5 -18.5 7.5t-20.5 2.5q-31 0 -53.5 -22.5t-22.5 -54.5t22.5 -54.5t53.5 -22.5q11 0 20.5 3t18.5 8t19 2t16 -12q5 -9 2.5 -19t-12.5 -16q-14 -8 -30.5 -12.5t-33.5 -4.5zM589 422q-5 0 -10 2t-8 6l-154 153q-7 8 -7 18.5t7 18.5q8 7 18.5 7t17.5 -7
l136 -136l340 341q8 7 18.5 7t17.5 -7q8 -8 8 -18.5t-8 -18.5l-358 -358q-4 -4 -8.5 -6t-9.5 -2z" />
    <glyph glyph-name="uniE839" unicode="&#xf839;" 
d="M896 858h-819q-32 0 -54.5 -22.5t-22.5 -54.5v-512q0 -32 22.5 -54.5t54.5 -22.5h384v-102h-179q-11 0 -18.5 -7.5t-7.5 -18.5t7.5 -18.5t18.5 -7.5h409q11 0 18.5 7.5t7.5 18.5t-7.5 18.5t-18.5 7.5h-179v102h384q32 0 54.5 22.5t22.5 54.5v512q0 32 -22.5 54.5
t-54.5 22.5zM922 269q0 -11 -7.5 -18.5t-18.5 -7.5h-819q-11 0 -18.5 7.5t-7.5 18.5v512q0 10 7.5 17.5t18.5 7.5h819q11 0 18.5 -7.5t7.5 -17.5v-512z" />
    <glyph glyph-name="uniE83A" unicode="&#xf83a;" 
d="M538 38h-52q-10 0 -17.5 7.5t-7.5 18.5t7.5 18.5t17.5 7.5h52q10 0 17.5 -7.5t7.5 -18.5t-7.5 -18.5t-17.5 -7.5zM742 -64h-460q-32 0 -54.5 22.5t-22.5 54.5v870q0 32 22.5 54.5t54.5 22.5h460q32 0 54.5 -22.5t22.5 -54.5v-870q0 -32 -22.5 -54.5t-54.5 -22.5zM282 909
q-11 0 -18.5 -7.5t-7.5 -18.5v-870q0 -11 7.5 -18.5t18.5 -7.5h460q11 0 18.5 7.5t7.5 18.5v870q0 11 -7.5 18.5t-18.5 7.5h-460zM691 141h-358q-11 0 -18.5 7.5t-7.5 17.5v666q0 11 7.5 18.5t18.5 7.5h358q11 0 18.5 -7.5t7.5 -18.5v-666q0 -10 -7.5 -17.5t-18.5 -7.5z
M358 192h308v614h-308v-614z" />
    <glyph glyph-name="uniE83B" unicode="&#xf83b;" 
d="M845 -64h-666q-32 0 -54.5 22.5t-22.5 54.5v870q0 32 22.5 54.5t54.5 22.5h666q32 0 54.5 -22.5t22.5 -54.5v-870q0 -32 -22.5 -54.5t-54.5 -22.5zM179 909q-10 0 -17.5 -7.5t-7.5 -18.5v-870q0 -11 7.5 -18.5t17.5 -7.5h666q10 0 17.5 7.5t7.5 18.5v870q0 11 -7.5 18.5
t-17.5 7.5h-666zM538 38h-52q-10 0 -17.5 7.5t-7.5 18.5t7.5 18.5t17.5 7.5h52q10 0 17.5 -7.5t7.5 -18.5t-7.5 -18.5t-17.5 -7.5zM794 141h-564q-10 0 -17.5 7.5t-7.5 17.5v666q0 11 7.5 18.5t17.5 7.5h564q10 0 17.5 -7.5t7.5 -18.5v-666q0 -10 -7.5 -17.5t-17.5 -7.5z
M256 192h512v614h-512v-614z" />
    <glyph glyph-name="uniE83C" unicode="&#xf83c;" 
d="M179 243h666q32 0 54.5 22.5t22.5 54.5v410q0 31 -22.5 53.5t-54.5 22.5h-666q-32 0 -54.5 -22.5t-22.5 -53.5v-410q0 -32 22.5 -54.5t54.5 -22.5zM154 730q0 10 7.5 17.5t17.5 7.5h666q10 0 17.5 -7.5t7.5 -17.5v-410q0 -11 -7.5 -18.5t-17.5 -7.5h-666q-10 0 -17.5 7.5
t-7.5 18.5v410zM998 192h-972q-11 0 -18.5 -7.5t-7.5 -18.5v-51q0 -32 22.5 -54.5t54.5 -22.5h870q32 0 54.5 22.5t22.5 54.5v51q0 11 -7.5 18.5t-18.5 7.5zM947 90h-870q-11 0 -18.5 7.5t-7.5 17.5v26h922v-26q0 -10 -7.5 -17.5t-18.5 -7.5z" />
    <glyph glyph-name="uniE83D" unicode="&#xf83d;" 
d="M589 243h-410q-32 0 -54.5 22.5t-22.5 54.5v410q0 31 22.5 53.5t54.5 22.5h666q32 0 54.5 -22.5t22.5 -53.5v-52q0 -10 -7.5 -17.5t-18.5 -7.5t-18.5 7.5t-7.5 17.5v52q0 10 -7.5 17.5t-17.5 7.5h-666q-10 0 -17.5 -7.5t-7.5 -17.5v-410q0 -11 7.5 -18.5t17.5 -7.5h410
q10 0 17.5 -7.5t7.5 -17.5q0 -11 -7.5 -18.5t-17.5 -7.5zM589 38h-512q-32 0 -54.5 22.5t-22.5 54.5v51q0 11 7.5 18.5t18.5 7.5h563q10 0 17.5 -7.5t7.5 -18.5q0 -10 -7.5 -17.5t-17.5 -7.5h-538v-26q0 -10 7.5 -17.5t18.5 -7.5h512q10 0 17.5 -7.5t7.5 -18.5t-7.5 -18.5
t-17.5 -7.5zM947 38h-205q-31 0 -53.5 22.5t-22.5 54.5v410q0 32 22.5 54.5t53.5 22.5h205q32 0 54.5 -22.5t22.5 -54.5v-410q0 -32 -22.5 -54.5t-54.5 -22.5zM742 550q-10 0 -17.5 -7.5t-7.5 -17.5v-410q0 -10 7.5 -17.5t17.5 -7.5h205q11 0 18.5 7.5t7.5 17.5v410
q0 10 -7.5 17.5t-18.5 7.5h-205zM845 141q-5 0 -10 2t-8 5q-4 4 -6 8.5t-2 9.5t2 10t6 8q3 4 8 6t10 2t9.5 -2t8.5 -6q3 -3 5 -8t2 -10t-2 -9.5t-5 -8.5q-4 -3 -8.5 -5t-9.5 -2z" />
    <glyph glyph-name="uniE83E" unicode="&#xf83e;" 
d="M486 346q-10 0 -17.5 7.5t-7.5 17.5v461q0 11 7.5 18.5t17.5 7.5q11 0 18.5 -7.5t7.5 -18.5v-461q0 -10 -7.5 -17.5t-18.5 -7.5zM486 -13q-77 0 -147 29t-124 84q-55 54 -84 124t-29 147q0 63 20 122t58 110q37 48 87.5 83.5t109.5 52.5q10 3 19.5 -2t12.5 -15
t-2.5 -19.5t-15.5 -12.5q-52 -15 -96 -47q-44 -31 -75 -73t-49 -93q-17 -51 -17 -106q0 -69 26 -129q26 -61 71 -106t106 -71q61 -27 129 -27q69 0 130 27q60 26 105.5 71t71.5 106q26 60 26 129q0 55 -17 106q-18 51 -49.5 93t-74.5 73q-44 32 -97 47q-10 3 -15 12.5
t-2 19.5t12.5 15t19.5 2q58 -17 109 -52.5t88 -83.5q38 -51 57.5 -110t19.5 -122q0 -77 -29 -147t-83 -124q-54 -55 -124.5 -84t-147.5 -29z" />
    <glyph glyph-name="uniE83F" unicode="&#xf83f;" 
d="M26 -13q-9 0 -16 5.5t-9 13.5t1 16t10 13q65 39 95.5 87.5t40.5 75.5q-36 27 -63 58q-28 32 -46.5 67.5t-28.5 73.5q-10 37 -10 77q0 39 10 77t29 74q19 35 45.5 65.5t60.5 56.5q34 27 74 48q39 20 82.5 34t90.5 21q46 8 94 8q49 0 95 -8q47 -7 90.5 -21t82.5 -34
q40 -21 74 -48q34 -26 60.5 -56.5t44.5 -65.5q20 -36 30 -74t10 -77q0 -40 -10 -78t-30 -74q-18 -34 -44.5 -65t-60.5 -57q-34 -27 -74 -47q-39 -21 -82.5 -35t-90.5 -21q-46 -7 -95 -7q-39 0 -78 4.5t-76 14.5q-17 -11 -46 -28.5t-66 -36.5q-57 -28 -106 -42.5t-88 -14.5z
M486 806q-90 0 -169 -26t-138 -71t-94 -106q-34 -61 -34 -129q0 -70 37 -134.5t104 -111.5q7 -4 9.5 -12t0.5 -15q-4 -17 -22 -58t-59 -85q50 17 101 45t91 55q5 3 10.5 4t10.5 0q37 -11 75 -16t77 -5q90 0 170 26q79 26 138 71.5t93 105.5q35 61 35 130q0 68 -35 129
q-34 61 -93 106t-138 71q-80 26 -170 26z" />
    <glyph glyph-name="uniE840" unicode="&#xf840;" 
d="M486 -13q-3 0 -6 1l-6 2q-2 2 -28 17q-25 15 -64 42t-87 65t-96 85q-7 8 -7.5 18.5t7.5 18.5q7 7 18 7t18 -7q38 -38 77 -70t73 -56.5t61 -41.5t40 -26q14 9 41 26t61 42t73 56q39 32 77 70q7 7 17.5 7t18.5 -7q7 -8 7 -18.5t-7 -18.5q-48 -47 -96 -85t-87 -65t-65 -42
q-25 -15 -27 -17l-6 -2zM65 397q-7 0 -13 4t-10 10q-21 45 -31.5 89.5t-10.5 88.5q0 55 21 104t57.5 85.5t85.5 57.5q49 22 105 22q37 0 76 -14t74 -39q20 -15 37.5 -33t29.5 -37q13 19 30.5 37t37.5 33q35 25 73.5 39t76.5 14q56 0 105 -22q48 -21 84.5 -57.5t58.5 -85.5
q21 -49 21 -104q0 -44 -10.5 -88.5t-31.5 -89.5q-5 -9 -15 -12.5t-20 0.5q-9 5 -12.5 15t0.5 19q19 40 28.5 79t9.5 77q0 45 -18 84q-17 40 -46.5 69.5t-68.5 46.5q-40 17 -85 17q-65 0 -121 -43.5t-72 -92.5q-3 -8 -9.5 -12.5t-15.5 -4.5q-8 0 -14.5 4.5t-9.5 12.5
q-16 49 -72 92.5t-121 43.5q-45 0 -85 -17q-39 -17 -69 -46.5t-47 -69.5q-17 -39 -17 -84q0 -38 9.5 -77t28.5 -79q4 -9 0.5 -19t-13.5 -15q-2 -1 -5 -1.5t-6 -0.5zM538 192q-8 0 -20 7t-19 32l-62 222l-42 -168q-6 -25 -17.5 -32.5t-19.5 -8.5t-21 4t-24 28l-31 62
q-2 2 -3 3.5t-1 2.5l-1 -1q-14 -21 -42 -35t-56 -14h-51q-11 0 -18.5 7.5t-7.5 18.5t7.5 18.5t18.5 7.5h51q16 0 32.5 8.5t23.5 17.5q8 13 20 19t25 5q15 0 27 -9.5t20 -25.5l23 -46l48 195q6 25 17 32.5t20 7.5q10 0 21 -7t18 -32l65 -234l61 185q8 24 20 30.5t20 7.5
q8 0 21 -5.5t22 -29.5l38 -88q5 -12 19.5 -21.5t27.5 -9.5h77q10 0 17.5 -7.5t7.5 -18.5t-7.5 -18.5t-17.5 -7.5h-77q-29 0 -56.5 18.5t-38.5 44.5l-30 72l-65 -199q-8 -25 -20 -31.5t-20 -6.5z" />
    <glyph glyph-name="uniE841" unicode="&#xf841;" 
d="M1024 781q0 10 -7.5 17.5t-18.5 7.5h-972q-11 0 -18.5 -7.5t-7.5 -17.5v-307q0 -11 7.5 -18.5t18.5 -7.5h76v-307h-25q-11 0 -18.5 -7.5t-7.5 -18.5q0 -10 7.5 -17.5t18.5 -7.5h205q10 0 17.5 7.5t7.5 17.5q0 11 -7.5 18.5t-17.5 7.5h-26v153h512v-153h-26
q-10 0 -17.5 -7.5t-7.5 -18.5q0 -10 7.5 -17.5t17.5 -7.5h205q11 0 18.5 7.5t7.5 17.5q0 11 -7.5 18.5t-18.5 7.5h-25v307h76q11 0 18.5 7.5t7.5 18.5v307zM973 715l-216 -216h-183l256 256h143v-40zM318 499l256 256h183l-256 -256h-183zM62 499l256 256h183l-256 -256
h-183zM245 755l-194 -194v194h194zM154 141v307h51v-307h-51zM256 346v102h512v-102h-512zM870 141h-51v307h51v-307zM830 499l143 143v-143h-143z" />
    <glyph glyph-name="uniE842" unicode="&#xf842;" 
d="M435 -64q-43 0 -85 8q-42 9 -81.5 25t-74.5 40q-36 24 -67 54q-30 31 -54 67q-24 35 -40 74.5t-25 81.5q-8 42 -8 85q0 44 8 86q9 42 25 81t40 75q24 35 54 66q31 31 67 55q35 23 74.5 39.5t81.5 24.5t85 8q11 0 18.5 -7.5t7.5 -17.5v-384h384q10 0 17.5 -7.5t7.5 -18.5
q0 -43 -8 -85t-24.5 -81.5t-39.5 -74.5q-24 -36 -55 -67q-31 -30 -66 -54q-36 -24 -75 -40t-81 -25q-42 -8 -86 -8zM410 754q-75 -5 -141 -37q-65 -31 -113.5 -83t-76.5 -119q-28 -68 -28 -144q0 -79 30 -149q31 -70 83 -122t122 -83q70 -30 149 -30q76 0 144 28
q67 28 119 76.5t83 113.5q32 66 37 141h-383q-10 0 -17.5 7.5t-7.5 17.5v383zM947 448h-409q-11 0 -18.5 7.5t-7.5 18.5v409q0 11 7.5 18.5t18.5 7.5q43 0 85 -9q42 -8 81 -24t75 -40t66 -55q31 -30 55 -66t40 -75t24 -81q9 -42 9 -85q0 -11 -7.5 -18.5t-18.5 -7.5zM563 499
h358q-5 72 -35 135q-29 63 -77 111t-111 77q-63 30 -135 35v-358z" />
    <glyph glyph-name="uniE843" unicode="&#xf843;" 
d="M896 -64h-819q-32 0 -54.5 22.5t-22.5 54.5v819q0 32 22.5 54.5t54.5 22.5h819q32 0 54.5 -22.5t22.5 -54.5v-819q0 -32 -22.5 -54.5t-54.5 -22.5zM77 858q-11 0 -18.5 -7.5t-7.5 -18.5v-819q0 -11 7.5 -18.5t18.5 -7.5h819q11 0 18.5 7.5t7.5 18.5v819q0 11 -7.5 18.5
t-18.5 7.5h-819zM333 90h-103q-10 0 -17.5 7.5t-7.5 17.5v461q0 11 7.5 18.5t17.5 7.5h103q10 0 17.5 -7.5t7.5 -18.5v-461q0 -10 -7.5 -17.5t-17.5 -7.5zM256 141h51v409h-51v-409zM538 90h-103q-10 0 -17.5 7.5t-7.5 17.5v615q0 10 7.5 17.5t17.5 7.5h103q10 0 17.5 -7.5
t7.5 -17.5v-615q0 -10 -7.5 -17.5t-17.5 -7.5zM461 141h51v563h-51v-563zM742 90h-102q-11 0 -18.5 7.5t-7.5 17.5v256q0 11 7.5 18.5t18.5 7.5h102q11 0 18.5 -7.5t7.5 -18.5v-256q0 -10 -7.5 -17.5t-18.5 -7.5zM666 141h51v205h-51v-205z" />
    <glyph glyph-name="uniE844" unicode="&#xf844;" 
d="M947 704h-153q12 16 18.5 35.5t6.5 41.5q0 53 -37.5 90.5t-90.5 37.5t-95.5 -32.5t-64.5 -57.5q-13 -15 -24.5 -31.5t-20.5 -31.5q-8 15 -19.5 31.5t-24.5 31.5q-22 25 -64.5 57.5t-95.5 32.5t-90.5 -37.5t-37.5 -90.5q0 -22 6.5 -41.5t18.5 -35.5h-153q-11 0 -18.5 -7.5
t-7.5 -18.5v-153q0 -11 7.5 -18.5t18.5 -7.5h25v-486q0 -32 22.5 -54.5t54.5 -22.5h717q32 0 54.5 22.5t22.5 54.5v486h25q11 0 18.5 7.5t7.5 18.5v153q0 11 -7.5 18.5t-18.5 7.5zM570 785q30 35 61.5 54t59.5 19q32 0 54.5 -22.5t22.5 -54.5t-22.5 -54.5t-54.5 -22.5h-173
q7 17 20 38.5t32 42.5zM563 -13h-153v666h153v-666zM205 781q0 32 22.5 54.5t54.5 22.5q27 0 59 -19t62 -54q19 -21 32 -42.5t20 -38.5h-173q-32 0 -54.5 22.5t-22.5 54.5zM51 653h307v-103h-307v103zM102 13v486h256v-512h-230q-11 0 -18.5 7.5t-7.5 18.5zM870 13
q0 -11 -7.5 -18.5t-17.5 -7.5h-231v512h256v-486zM922 550h-308v103h308v-103z" />
    <glyph glyph-name="uniE845" unicode="&#xf845;" 
d="M968 591l-154 205q-3 4 -7 6.5t-9 3.5l-307 51q-2 1 -4.5 1t-4.5 -1l-307 -51q-5 -1 -9 -3.5t-7 -6.5l-154 -205q-5 -7 -5 -16t7 -16l460 -512q4 -4 9 -6.5t10 -2.5q6 0 11 2.5t8 6.5l461 512q6 7 6.5 16t-4.5 16zM655 602l-169 -463l-168 463h337zM343 653l143 143
l143 -143h-286zM561 794l189 -32l-63 -95zM286 667l-64 95l190 32zM239 645l-153 -31l92 122zM265 598l152 -419l-342 381zM708 598l190 -38l-343 -381zM734 645l61 91l92 -122z" />
    <glyph glyph-name="uniE847" unicode="&#xf847;" 
d="M410 934q0 11 -7.5 18.5t-18.5 7.5t-18.5 -7.5t-7.5 -18.5q0 -50 8 -92t16 -75q7 -33 11 -57.5t-5 -35.5q-7 -9 -27 -14t-54 -7v230q0 11 -7.5 18.5t-17.5 7.5q-11 0 -18.5 -7.5t-7.5 -18.5v-230q-33 2 -53.5 7t-27.5 14q-9 11 -5 35.5t12 57.5q7 34 15 75.5t8 91.5
q0 11 -7.5 18.5t-18.5 7.5q-10 0 -17.5 -7.5t-7.5 -18.5q0 -45 -7.5 -84.5t-14.5 -70.5q-10 -43 -13.5 -77t16.5 -60q15 -18 43.5 -28t75.5 -12q-2 -53 -6 -103q-5 -50 -11 -96t-13 -88t-13 -80q-17 -102 -22.5 -169t22.5 -102q12 -14 30 -21t41 -7t40.5 7t29.5 21
q29 35 23 102t-23 169q-6 38 -13 80t-13 88t-10 96q-5 50 -7 103q47 2 75.5 11.5t43.5 28.5q21 26 17 59.5t-13 76.5q-8 32 -15 71.5t-7 84.5zM313 -3q-3 -3 -9.5 -6.5t-21.5 -3.5t-22 3.5t-9 6.5q-18 21 -10.5 84.5t20.5 144.5q5 29 10.5 61t10.5 66q5 -34 10 -65.5
t10 -61.5q14 -81 21 -144.5t-10 -84.5zM813 235q-7 45 -15 95t-15 105.5t-11 116.5t-4 126v256q0 9 -5.5 16t-13.5 9t-16.5 -1t-12.5 -11q-39 -68 -68 -148t-48.5 -150t-29.5 -118t-10 -53q-1 -5 0 -10.5t5 -10.5q4 -4 9 -6.5t11 -2.5h114q-6 -59 -14.5 -112.5t-16.5 -100.5
q-17 -102 -23 -169t23 -102q12 -14 29.5 -21t40.5 -7t41 7t30 21q28 35 22.5 102t-22.5 169zM620 499q5 23 13 59q9 35 21 78.5t28 91.5q15 48 35 95v-145q0 -47 -2.5 -92t-6.5 -87h-88zM773 -3q-2 -3 -9 -6.5t-22 -3.5t-21.5 3.5t-9.5 6.5q-17 21 -10 84.5t21 144.5
q5 29 10 61t10 66q5 -34 10.5 -65.5t10.5 -61.5q13 -81 20.5 -144.5t-10.5 -84.5z" />
    <glyph glyph-name="uniE848" unicode="&#xf848;" 
d="M512 192q-64 0 -109 45t-45 109q0 63 45 108t109 45t109 -45t45 -108q0 -64 -45 -109t-109 -45zM512 448q-42 0 -72 -30t-30 -72q0 -43 30 -73t72 -30t72 30t30 73q0 42 -30 72t-72 30zM814 855l-9 36q-7 29 -32.5 49t-55.5 20h-410q-30 0 -55.5 -20t-32.5 -49l-9 -36
q-25 -7 -40.5 -27.5t-15.5 -46.5v-51q0 -26 14.5 -46t37.5 -27l46 -646q3 -31 26.5 -53t54.5 -22h358q31 0 54.5 22t26.5 53l46 646q23 7 37.5 27t14.5 46v51q0 26 -15.5 46.5t-40.5 27.5zM307 909h410q12 0 24 -9.5t15 -20.5l5 -21h-498l5 21q3 11 15 20.5t24 9.5zM762 602
h-500l-4 51h508zM730 141h-436l-29 409h494zM691 -13h-358q-11 0 -20 8t-10 19l-5 76h428l-5 -76q-1 -11 -10 -19t-20 -8zM819 730q0 -11 -7.5 -18.5t-17.5 -7.5h-564q-10 0 -17.5 7.5t-7.5 18.5v51q0 10 7.5 17.5t17.5 7.5h564q10 0 17.5 -7.5t7.5 -17.5v-51z" />
    <glyph glyph-name="uniE849" unicode="&#xf849;" 
d="M1018 951q-4 4 -9 6.5t-11 2.5h-209q-87 -1 -163.5 -4.5t-142.5 -10.5t-123 -21q-60 -14 -107.5 -36t-82.5 -53q-39 -33 -65.5 -76.5t-41.5 -98.5q-11 -37 -12.5 -99t18.5 -128q8 -25 19.5 -48t27.5 -45q-23 -36 -44 -78q-21 -43 -37 -90.5t-26 -99.5q-9 -53 -9 -110
q0 -11 7.5 -18.5t18.5 -7.5q10 0 17.5 7.5t7.5 18.5q0 88 23 165q23 76 57 138.5t73 110.5t70 79q45 45 94.5 82.5t100.5 63.5q48 25 92 38.5t79 13.5q11 0 18.5 7.5t7.5 17.5q0 11 -7.5 18.5t-18.5 7.5q-42 0 -91.5 -14.5t-102.5 -42.5q-55 -29 -108 -68.5t-100 -86.5
q-20 -20 -43.5 -47t-47.5 -59q-9 14 -16.5 29.5t-12.5 31.5q-19 63 -16 118t10 81q27 98 94 152q66 53 172 78t253 29q148 4 337 4q-23 -121 -55 -220q-32 -100 -74 -177.5t-93 -133.5q-51 -55 -112 -89q-56 -31 -110 -40q-55 -10 -102 -7t-84 14q-37 10 -59 19
q-9 4 -18 8.5t-18 9.5t-19 2.5t-16 -11.5q-5 -9 -2.5 -19.5t11.5 -15.5q11 -6 21.5 -11.5t21.5 -9.5q24 -10 61.5 -21t85.5 -15q10 -1 21 -1h20q57 0 109.5 13.5t101.5 39.5q62 35 115 90t97 131q26 44 48 95q22 52 41.5 110t34.5 123q16 66 29 137q1 6 -0.5 11.5t-5.5 9.5z
" />
    <glyph glyph-name="uniE84A" unicode="&#xf84a;" 
d="M154 346q-43 0 -73 44.5t-30 109.5t30 109.5t73 44.5t72.5 -44.5t29.5 -109.5t-29.5 -109.5t-72.5 -44.5zM154 603q-19 0 -35.5 -29.5t-16.5 -73.5t16.5 -73.5t35.5 -29.5q18 0 34.5 29.5t16.5 73.5t-16.5 73.5t-34.5 29.5zM358 550q-43 0 -72.5 44.5t-29.5 109.5
t29.5 109.5t72.5 44.5t73 -44.5t30 -109.5t-30 -109.5t-73 -44.5zM358 806q-18 0 -34.5 -29t-16.5 -73t16.5 -73t34.5 -29t34.5 29t16.5 73t-16.5 73t-34.5 29zM614 550q-43 0 -72.5 44.5t-29.5 109.5t29.5 109.5t72.5 44.5t73 -44.5t30 -109.5t-30 -109.5t-73 -44.5z
M614 806q-18 0 -34.5 -29t-16.5 -73t16.5 -73t34.5 -29q19 0 35.5 29t16.5 73t-16.5 73t-35.5 29zM819 346q-43 0 -72.5 44.5t-29.5 109.5t29.5 109.5t72.5 44.5t73 -44.5t30 -109.5t-30 -109.5t-73 -44.5zM819 603q-18 0 -34.5 -29.5t-16.5 -73.5t16.5 -73.5t34.5 -29.5
t34.5 29.5t16.5 73.5t-16.5 73.5t-34.5 29.5zM666 38q-34 0 -58 9.5t-43 19.5q-19 9 -36.5 16t-42.5 7q-24 0 -41.5 -7t-36.5 -16q-20 -10 -43.5 -19.5t-57.5 -9.5q-21 0 -40.5 11.5t-32.5 31.5q-24 35 -24.5 87t22.5 110q21 53 49 94q27 41 59.5 69.5t69.5 42.5
q37 15 76 15q40 0 77 -15q36 -14 68.5 -42.5t60.5 -69.5t49 -94q23 -58 22.5 -110t-24.5 -87q-14 -20 -33 -31.5t-40 -11.5zM486 141q34 0 58 -9.5t44 -19.5q18 -9 35.5 -15.5t42.5 -6.5q8 0 16 5t15 15q16 24 15 63.5t-19 85.5q-36 90 -90 139.5t-117 49.5
q-62 0 -116 -49.5t-90 -139.5q-19 -46 -20 -85.5t16 -63.5q7 -10 15 -15t16 -5q24 0 42 6.5t36 16.5q20 9 44 18.5t57 9.5z" />
    <glyph glyph-name="uniE84B" unicode="&#xf84b;" 
d="M691 499q-53 0 -90.5 37.5t-37.5 90.5t37.5 90.5t90.5 37.5t90.5 -37.5t37.5 -90.5t-37.5 -90.5t-90.5 -37.5zM691 704q-32 0 -54.5 -22.5t-22.5 -54.5t22.5 -54.5t54.5 -22.5t54.5 22.5t22.5 54.5t-22.5 54.5t-54.5 22.5zM26 -64q-5 0 -10 2t-9 5q-5 6 -6.5 13t1.5 14
q29 82 59 143q31 61 61.5 102t62.5 61q31 21 63 21q21 0 40.5 -9t36.5 -27q28 -28 33 -54t0 -45q-6 -29 -30 -57q-23 -29 -63.5 -57t-98.5 -56q-57 -27 -132 -54q-2 -1 -4 -1.5t-4 -0.5zM248 246q-19 0 -41 -16.5t-46 -48.5q-22 -31 -45 -75t-46 -100q51 21 92 41.5t72 41.5
q41 28 56.5 49.5t17.5 34.5q3 14 -1.5 26.5t-17.5 25.5q-10 10 -20.5 15.5t-20.5 5.5zM998 960q-49 0 -96 -4q-48 -4 -92 -12.5t-85 -21.5q-41 -12 -79 -29q-62 -27 -115 -65.5t-96 -87.5q-8 -9 -15.5 -18t-13.5 -18q-34 -3 -67.5 -16t-67.5 -37q-28 -20 -57 -47.5
t-57 -62.5q-47 -59 -74.5 -107.5t-28.5 -50.5q-4 -9 -2 -18t10 -15q3 -2 7 -3t8 -1q5 0 9.5 1.5t8.5 5.5l17 15l49 33q26 15 65 29t87 17q12 -31 40 -63.5t45 -49.5t49.5 -45t63.5 -40q-3 -48 -17 -87t-29 -65q-18 -31 -33 -49l-15 -17q-7 -7 -7.5 -16.5t4.5 -16.5
q4 -5 9.5 -8t11.5 -3q3 0 6 1l6 2q2 1 50.5 28.5t107.5 74.5q35 28 62.5 57t47.5 57q24 34 37 67.5t16 67.5q9 6 18 13.5t18 15.5q49 43 87.5 96t65.5 115q17 38 29 79q13 41 21.5 85t12.5 92q4 47 4 96v26h-26zM159 458q37 53 91 109t117 77q-25 -44 -38.5 -82t-18.5 -64
q-45 -2 -83 -13.5t-68 -26.5zM522 95q15 30 26.5 68t13.5 83q26 5 64 18.5t82 38.5q-21 -63 -77 -117t-109 -91zM770 410q-80 -71 -150 -93.5t-82 -22.5l-9 3l-30 18q-15 10 -31.5 24.5t-33.5 30.5q-16 17 -30.5 33.5t-24.5 31.5q-15 21 -18 30l-3 9q0 12 22.5 82t93.5 150
q42 48 95 85t116 62.5t135 39.5t152 15q-1 -80 -15 -152t-39.5 -135t-62.5 -116t-85 -95z" />
    <glyph glyph-name="uniE84C" unicode="&#xf84c;" 
d="M947 704h-230v77q0 32 -22.5 54.5t-54.5 22.5h-256q-32 0 -54.5 -22.5t-22.5 -54.5v-77h-230q-32 0 -54.5 -22.5t-22.5 -54.5v-563q0 -32 22.5 -54.5t54.5 -22.5h870q32 0 54.5 22.5t22.5 54.5v563q0 32 -22.5 54.5t-54.5 22.5zM358 781q0 10 7.5 17.5t18.5 7.5h256
q11 0 18.5 -7.5t7.5 -17.5v-77h-308v77zM77 653h870q11 0 18.5 -7.5t7.5 -18.5v-384h-103v26q0 10 -7.5 17.5t-17.5 7.5h-103q-10 0 -17.5 -7.5t-7.5 -17.5v-26h-410v26q0 10 -7.5 17.5t-17.5 7.5h-103q-10 0 -17.5 -7.5t-7.5 -17.5v-26h-103v384q0 11 7.5 18.5t18.5 7.5z
M819 243v-51h-51v51h51zM256 243v-51h-51v51h51zM947 38h-870q-11 0 -18.5 7.5t-7.5 18.5v128h103v-26q0 -10 7.5 -17.5t17.5 -7.5h103q10 0 17.5 7.5t7.5 17.5v26h410v-26q0 -10 7.5 -17.5t17.5 -7.5h103q10 0 17.5 7.5t7.5 17.5v26h103v-128q0 -11 -7.5 -18.5t-18.5 -7.5z
" />
    </font>
</defs>
</svg>
