<?xml version="1.0" standalone="no"?>
<!DOCTYPE svg PUBLIC "-//W3C//DTD SVG 1.1//EN" "http://www.w3.org/Graphics/SVG/1.1/DTD/svg11.dtd" >
<svg xmlns="http://www.w3.org/2000/svg" xmlns:xlink="http://www.w3.org/1999/xlink" version="1.1">
<metadata>
Created by FontForge 20201107 at Sat Jul 31 04:32:51 2021
 By Unknown
</metadata>
<defs>
<font id="jkiticon" horiz-adv-x="1024" >
  <font-face 
    font-family="jkiticon"
    font-weight="400"
    font-stretch="normal"
    units-per-em="1024"
    panose-1="2 0 5 3 0 0 0 0 0 0"
    ascent="960"
    descent="-64"
    bbox="-0.75 -64 1030 896"
    underline-thickness="0"
    underline-position="0"
    unicode-range="U+EDAC-EED6"
  />
<missing-glyph 
 />
    <glyph glyph-name=".notdef" 
 />
    <glyph glyph-name="skull-solid" unicode="&#xedac;" 
d="M512 832q-150 0 -246 -75q-106 -82 -106 -227q0 -102 68 -191q-4 -21 -4 -34q0 -57 53 -88q19 -11 75 -18v-84l10 -10q14 -13 38 -23q45 -18 112 -18t112 18q11 4 20.5 10t13.5 10l4 3l10 10v84q56 7 75 18q53 31 53 88q0 13 -4 34q68 89 68 191q0 145 -106 227
q-96 75 -246 75zM512 768q127 0 206 -61q82 -64 82 -177q0 -55 -29 -111q-3 15 -3 29h-64q0 -40 19 -85q13 -31 13 -58q0 -20 -22 -33q-27 -16 -74 -16h-32v-110q-5 -3 -8 -4q-35 -14 -88 -14t-88 14q-3 1 -8 4v110h-32q-47 0 -74 16q-22 13 -22 33q0 27 13 58q19 45 19 85
h-64q0 -14 -3 -29q-29 56 -29 111q0 113 82 177q79 61 206 61zM416 448q-27 0 -45.5 -18.5t-18.5 -45.5t18.5 -45.5t45.5 -18.5t45.5 18.5t18.5 45.5t-18.5 45.5t-45.5 18.5zM608 448q-27 0 -45.5 -18.5t-18.5 -45.5t18.5 -45.5t45.5 -18.5t45.5 18.5t18.5 45.5t-18.5 45.5
t-45.5 18.5zM512 328q-40 -51 -40 -75q0 -18 16 -18q6 0 12 6t9 12l3 6q11 -24 24 -24q16 0 16 18q0 11 -10 29.5t-20 31.5z" />
    <glyph glyph-name="skyatlas" unicode="&#xedad;" 
d="M570 749q20 0 45.5 -6t57.5 -22t57.5 -39.5t43 -63.5t17.5 -89l-3 -35q30 8 63 8q15 0 34.5 -4t44.5 -16.5t45.5 -31t34.5 -50t14 -70.5q0 -47 -18.5 -84t-47.5 -57.5t-59.5 -31t-59.5 -10.5q-42 0 -80.5 13.5t-69.5 37t-60 53.5t-55.5 63t-53 66.5t-55 63.5t-58.5 53
t-67 37t-78 14q-83 0 -130.5 -50t-47.5 -114q0 -83 53 -130.5t130 -47.5q34 0 66.5 7t56.5 17.5t45 23t34.5 23t23 17.5t11.5 7q20 0 20 -15q0 -12 -23 -35t-59 -46t-88 -40.5t-101 -17.5q-106 0 -179.5 64t-73.5 173q0 66 34 120.5t90 84.5t121 30q53 0 100.5 -17t83 -45
t70 -63.5t62 -72.5t58.5 -72.5t60.5 -63t67 -44.5t77.5 -17q56 0 88 33t32 75q0 32 -14 58.5t-40 42t-59 15.5q-14 0 -40 -9t-35 -9q-13 0 -20 8t-7 18q0 5 5.5 27.5t5.5 37.5q0 16 -5 36.5t-18.5 46t-33 46t-54 34.5t-77.5 14q-31 0 -57.5 -9.5t-41.5 -20.5t-27 -20.5
t-17 -9.5q-11 0 -14.5 4.5t-3.5 13.5q0 4 6.5 14t21.5 23.5t35 26t50.5 21t65.5 8.5z" />
    <glyph glyph-name="skype" unicode="&#xedae;" 
d="M352 832q-93 0 -158.5 -65.5t-65.5 -158.5q0 -41 23 -92q-7 -38 -7 -68q0 -152 108 -260t260 -108q30 0 68 7q51 -23 92 -23q93 0 158.5 65.5t65.5 158.5q0 41 -23 92q7 38 7 68q0 152 -108 260t-260 108q-30 0 -68 -7q-51 23 -92 23zM352 768q41 0 76 -19q10 -6 22 -3
q29 6 62 6q126 0 215 -89t89 -215q0 -33 -6 -62q-3 -12 3 -22q19 -35 19 -76q0 -67 -46.5 -113.5t-113.5 -46.5q-41 0 -76 19q-10 6 -22 3q-29 -6 -62 -6q-126 0 -215 89t-89 215q0 33 6 62q3 12 -3 22q-19 35 -19 76q0 67 46.5 113.5t113.5 46.5zM507 667
q-67 0 -115.5 -30.5t-48.5 -92.5q0 -85 100 -110l106 -26q40 -10 40 -42q0 -22 -20 -37.5t-55 -15.5q-32 0 -53.5 11.5t-29.5 24.5t-21 24.5t-29 11.5q-17 0 -28 -10.5t-11 -27.5q0 -38 45 -69.5t127 -31.5t125 35t43 92q0 91 -107 115l-78 18q-20 5 -31 8.5t-22 12.5
t-11 22q0 22 17.5 35t49.5 13q29 0 49.5 -9.5t28.5 -20.5t19.5 -20.5t25.5 -9.5q18 0 30 9.5t12 26.5q0 39 -50 66.5t-108 27.5z" />
    <glyph glyph-name="slack-hash" unicode="&#xedaf;" 
d="M565 864q-13 1 -28 -4q-27 -9 -39.5 -34.5t-3.5 -52.5l29 -85l-164 -55l-27 82q-9 27 -34.5 39.5t-52.5 3.5t-40 -34.5t-4 -52.5l27 -81l-85 -29q-27 -9 -39.5 -35t-3.5 -53t34.5 -39.5t52.5 -3.5l85 28l55 -163l-82 -27q-27 -9 -39.5 -34.5t-3.5 -52.5t34.5 -40t52.5 -4
l81 27l29 -85q9 -27 35 -39.5t53 -3.5t39.5 34.5t3.5 52.5l-28 85l163 55l27 -82q9 -27 34.5 -39.5t52.5 -3.5t40 34.5t4 52.5l-27 81l85 29q27 9 39.5 35t3.5 53t-34.5 39.5t-52.5 3.5l-85 -28l-55 163l82 27q27 9 39.5 34.5t3.5 52.5t-34.5 40t-52.5 4l-81 -27l-29 85
q-15 43 -60 47zM566 557l55 -163l-163 -55l-55 163z" />
    <glyph glyph-name="slack" unicode="&#xedb0;" 
d="M565 864q-13 1 -28 -4q-27 -9 -39.5 -34.5t-3.5 -52.5l29 -85l-164 -55l-27 82q-9 27 -34.5 39.5t-52.5 3.5t-40 -34.5t-4 -52.5l27 -81l-85 -29q-27 -9 -39.5 -35t-3.5 -53t34.5 -39.5t52.5 -3.5l85 28l55 -163l-82 -27q-27 -9 -39.5 -34.5t-3.5 -52.5t34.5 -40t52.5 -4
l81 27l29 -85q9 -27 35 -39.5t53 -3.5t39.5 34.5t3.5 52.5l-28 85l163 55l27 -82q9 -27 34.5 -39.5t52.5 -3.5t40 34.5t4 52.5l-27 81l85 29q27 9 39.5 35t3.5 53t-34.5 39.5t-52.5 3.5l-85 -28l-55 163l82 27q27 9 39.5 34.5t3.5 52.5t-34.5 40t-52.5 4l-81 -27l-29 85
q-15 43 -60 47zM566 557l55 -163l-163 -55l-55 163z" />
    <glyph glyph-name="slash-solid" unicode="&#xedb1;" 
d="M841 823l-704 -704l46 -46l704 704z" />
    <glyph glyph-name="sleigh-solid" unicode="&#xedb2;" 
d="M144 736q-33 0 -56.5 -23.5t-23.5 -56.5v-16h64v16q0 16 16 16q6 0 11 -5t5 -11q0 -7 -28 -58q-36 -66 -36 -134t46.5 -118.5t113.5 -56.5v-65h-160v-64h768q39 0 67.5 28.5t28.5 67.5t-28.5 67.5t-67.5 28.5v-64q14 0 23 -9t9 -23t-9 -23t-23 -9h-160v71q56 16 92 63
t36 106v80q0 14 9 23t23 9t23 -9t9 -23h64q0 39 -28.5 67.5t-67.5 28.5t-67.5 -28.5t-28.5 -67.5q0 -27 -7.5 -38.5t-22.5 -18.5q-7 -3 -15 -5t-13 -2h-166q-40 0 -55 30q-4 7 -6 15.5t-3 13.5v37q0 50 -23.5 86t-57.5 53q-17 9 -36.5 14t-30.5 6l-11 1h-177zM222 672h98
q22 0 49 -14q47 -24 47 -82v-32q0 -31 16 -62q14 -27 43 -46.5t69 -19.5h160q26 -2 57 11q-12 -33 -40.5 -54t-64.5 -21h-384q-46 0 -79 33t-33 79q0 53 28 104q3 6 11.5 19.5t12.5 21.5t8 21t4 26q0 6 -2 16zM320 288h320v-64h-320v64z" />
    <glyph glyph-name="sliders-h-solid" unicode="&#xedb3;" 
d="M480 800q-31 0 -55.5 -18t-34.5 -46h-262v-64h262q10 -28 34.5 -46t55.5 -18t55.5 18t34.5 46h326v64h-326q-10 28 -34.5 46t-55.5 18zM480 736q14 0 23 -9t9 -23t-9 -23t-23 -9t-23 9t-9 23t9 23t23 9zM704 544q-31 0 -55.5 -18t-34.5 -46h-486v-64h486q10 -28 34.5 -46
t55.5 -18t55.5 18t34.5 46h102v64h-102q-10 28 -34.5 46t-55.5 18zM704 480q14 0 23 -9t9 -23t-9 -23t-23 -9t-23 9t-9 23t9 23t23 9zM352 288q-31 0 -55.5 -18t-34.5 -46h-134v-64h134q10 -28 34.5 -46t55.5 -18t55.5 18t34.5 46h454v64h-454q-10 28 -34.5 46t-55.5 18z
M352 224q14 0 23 -9t9 -23t-9 -23t-23 -9t-23 9t-9 23t9 23t23 9z" />
    <glyph glyph-name="slideshare" unicode="&#xedb4;" 
d="M256 832q-39 0 -67.5 -28.5t-28.5 -67.5v-269q-47 27 -48 27q-16 0 -16 -18q0 -25 59.5 -67t114.5 -63q-17 -50 -17 -106q0 -24 7.5 -52t23 -57t45.5 -48t69 -19q3 0 8.5 0.5t20 5t25 12t19.5 24t9 39.5v159l64 -19v-140q0 -36 20.5 -56t41.5 -23l20 -2q39 0 69 19
t45.5 48t23 57t7.5 52q0 25 -4.5 51.5t-8.5 40.5l-4 14q55 21 114.5 63t59.5 67q0 18 -16 18q-1 0 -48 -27v269q0 39 -28.5 67.5t-67.5 28.5h-512zM256 768h512q14 0 23 -9t9 -23v-301q-65 -27 -119 -27q-27 0 -58 1.5t-38 1.5q-17 0 -27.5 -10.5t-11.5 -20.5l-2 -10v-29
l-75 57q-11 13 -30 13q-7 0 -38 -1.5t-58 -1.5q-54 0 -119 27v301q0 14 9 23t23 9zM394 609q-35 0 -60 -24t-25 -57t25 -56.5t60 -23.5q36 0 61 23.5t25 56.5t-25.5 57t-60.5 24zM630 609q-35 0 -60.5 -24t-25.5 -57t25 -56.5t61 -23.5q35 0 60 23.5t25 56.5t-25 57t-60 24z
" />
    <glyph glyph-name="smile-beam-solid" unicode="&#xedb5;" 
d="M512 864q-172 0 -294 -122t-122 -294t122 -294t294 -122t294 122t122 294t-122 294t-294 122zM512 800q146 0 249 -103t103 -249t-103 -249t-249 -103t-249 103t-103 249t103 249t249 103zM352 576q-30 0 -59 -9.5t-43 -19.5l-14 -10l40 -50q34 25 76 25q19 0 38 -6.5
t29 -12.5l10 -6l38 50q-3 3 -7 5.5t-16 9t-24.5 11.5t-31 9t-36.5 4zM672 576q-30 0 -59 -9.5t-43 -19.5l-14 -10l40 -50q34 25 76 25q9 0 17.5 -1.5t16 -3.5t14.5 -5t12 -5.5t9 -5t6 -3.5l2 -1l38 50q-6 6 -16.5 12.5t-40 16.5t-58.5 10zM346 352l-55 -32q8 -14 18 -27
t22 -25q23 -24 52 -41q14 -8 29 -15q15 -6 31.5 -10.5t33.5 -7.5q18 -2 35 -2t35 2q85 12 146 74q12 12 22 25t18 27l-55 32q-22 -38 -58.5 -63t-81.5 -31q-13 -2 -26 -2t-26 1.5t-25 5.5q-25 7 -46 19q-22 13 -39 31q-9 8 -16.5 18t-13.5 21z" />
    <glyph glyph-name="smile-beam" unicode="&#xedb6;" 
d="M512 864q-172 0 -294 -122t-122 -294t122 -294t294 -122t294 122t122 294t-122 294t-294 122zM512 800q146 0 249 -103t103 -249t-103 -249t-249 -103t-249 103t-103 249t103 249t249 103zM352 576q-30 0 -59 -9.5t-43 -19.5l-14 -10l40 -50q34 25 76 25q19 0 38 -6.5
t29 -12.5l10 -6l38 50q-3 3 -7 5.5t-16 9t-24.5 11.5t-31 9t-36.5 4zM672 576q-30 0 -59 -9.5t-43 -19.5l-14 -10l40 -50q34 25 76 25q9 0 17.5 -1.5t16 -3.5t14.5 -5t12 -5.5t9 -5t6 -3.5l2 -1l38 50q-6 6 -16.5 12.5t-40 16.5t-58.5 10zM346 352l-55 -32q8 -14 18 -27
t22 -25q23 -24 52 -41q14 -8 29 -15q15 -6 31.5 -10.5t33.5 -7.5q18 -2 35 -2t35 2q85 12 146 74q12 12 22 25t18 27l-55 32q-22 -38 -58.5 -63t-81.5 -31q-13 -2 -26 -2t-26 1.5t-25 5.5q-25 7 -46 19q-22 13 -39 31q-9 8 -16.5 18t-13.5 21z" />
    <glyph glyph-name="smile-solid" unicode="&#xedb7;" 
d="M512 832q-159 0 -271.5 -112.5t-112.5 -271.5t112.5 -271.5t271.5 -112.5t271.5 112.5t112.5 271.5t-112.5 271.5t-271.5 112.5zM512 768q133 0 226.5 -93.5t93.5 -226.5t-93.5 -226.5t-226.5 -93.5t-226.5 93.5t-93.5 226.5t93.5 226.5t226.5 93.5zM368 576
q-20 0 -34 -14t-14 -34t14 -34t34 -14t34 14t14 34t-14 34t-34 14zM656 576q-20 0 -34 -14t-14 -34t14 -34t34 -14t34 14t14 34t-14 34t-34 14zM346 352l-55 -32q34 -58 92.5 -93t128.5 -35t128.5 35t92.5 93l-55 32q-25 -44 -69.5 -70t-96.5 -26t-96.5 26t-69.5 70z" />
    <glyph glyph-name="smile-wink-solid" unicode="&#xedb8;" 
d="M512 832q-159 0 -271.5 -112.5t-112.5 -271.5t112.5 -271.5t271.5 -112.5t271.5 112.5t112.5 271.5t-112.5 271.5t-271.5 112.5zM512 768q133 0 226.5 -93.5t93.5 -226.5t-93.5 -226.5t-226.5 -93.5t-226.5 93.5t-93.5 226.5t93.5 226.5t226.5 93.5zM368 576
q-20 0 -34 -14t-14 -34t14 -34t34 -14t34 14t14 34t-14 34t-34 14zM576 544v-64h160v64h-160zM671 415q0 -73 -53 -118q-48 -41 -106 -41q-86 0 -150 63l-45 -46q82 -81 195 -81q82 0 148 56q75 64 75 167h-64z" />
    <glyph glyph-name="smile-wink" unicode="&#xedb9;" 
d="M512 832q-159 0 -271.5 -112.5t-112.5 -271.5t112.5 -271.5t271.5 -112.5t271.5 112.5t112.5 271.5t-112.5 271.5t-271.5 112.5zM512 768q133 0 226.5 -93.5t93.5 -226.5t-93.5 -226.5t-226.5 -93.5t-226.5 93.5t-93.5 226.5t93.5 226.5t226.5 93.5zM368 576
q-20 0 -34 -14t-14 -34t14 -34t34 -14t34 14t14 34t-14 34t-34 14zM576 544v-64h160v64h-160zM671 415q0 -73 -53 -118q-48 -41 -106 -41q-86 0 -150 63l-45 -46q82 -81 195 -81q82 0 148 56q75 64 75 167h-64z" />
    <glyph glyph-name="smile" unicode="&#xedba;" 
d="M512 832q-159 0 -271.5 -112.5t-112.5 -271.5t112.5 -271.5t271.5 -112.5t271.5 112.5t112.5 271.5t-112.5 271.5t-271.5 112.5zM512 768q133 0 226.5 -93.5t93.5 -226.5t-93.5 -226.5t-226.5 -93.5t-226.5 93.5t-93.5 226.5t93.5 226.5t226.5 93.5zM368 576
q-20 0 -34 -14t-14 -34t14 -34t34 -14t34 14t14 34t-14 34t-34 14zM656 576q-20 0 -34 -14t-14 -34t14 -34t34 -14t34 14t14 34t-14 34t-34 14zM346 352l-55 -32q34 -58 92.5 -93t128.5 -35t128.5 35t92.5 93l-55 32q-25 -44 -69.5 -70t-96.5 -26t-96.5 26t-69.5 70z" />
    <glyph glyph-name="smog-solid" unicode="&#xedbb;" 
d="M256 800q-80 0 -136 -56t-56 -136t56 -136t136 -56h225q11 -15 25 -26.5t30 -20t34.5 -13t37.5 -4.5q38 0 71.5 17t55.5 47h81q60 0 102 42t42 102t-42 102t-102 42q-21 0 -41 -6t-37 -17q-22 53 -70.5 86t-107.5 33q-94 0 -152 -75q-58 75 -152 75zM160 288v-64h800v64
h-800zM64 160v-64h224v64h-224zM352 160v-64h512v64h-512z" />
    <glyph glyph-name="smoking-ban-solid" unicode="&#xedbc;" 
d="M119 887l-46 -46l832 -832l46 46l-201 201h242v192h-434zM513 832q-16 -16 -30 -47q-19 -41 -19 -80q0 -55 38 -92q42 -40 128 -51q72 -9 98 -25q24 -14 31 -48l63 14q-13 60 -61 89q-39 23 -123 34q-65 8 -92 34q-18 17 -18 45q0 25 13 53q10 22 17 29zM690 822v-64
q40 0 65 -14q35 -20 40 -74l3 -30h29q45 0 68 -20q13 -12 16 -33q4 -31 -16 -79l60 -24q26 63 20 111q-5 44 -38 73q-34 29 -86 34q-17 71 -64 98q-39 22 -97 22zM32 448v-192h538l-64 64h-410v64h346l-64 64h-346zM622 384h114v-64h-50zM800 384h32v-64h-32v64zM896 384h32
v-64h-32v64z" />
    <glyph glyph-name="smoking-solid" unicode="&#xedbd;" 
d="M513 832q-16 -16 -30 -47q-19 -41 -19 -80q0 -55 38 -92q42 -40 128 -51q72 -9 98 -25q24 -14 31 -48l63 14q-13 60 -61 89q-39 23 -123 34q-65 8 -92 34q-18 17 -18 45q0 25 13 53q10 22 17 29zM690 822v-64q40 0 65 -14q35 -20 40 -74l3 -30h29q45 0 68 -20
q13 -12 16 -33q4 -31 -16 -79l60 -24q26 63 20 111q-5 44 -38 73q-34 29 -86 34q-17 71 -64 98q-39 22 -97 22zM32 448v-192h960v192h-960zM96 384h640v-64h-640v64zM800 384h32v-64h-32v64zM896 384h32v-64h-32v64z" />
    <glyph glyph-name="sms-solid" unicode="&#xedbe;" 
d="M64 800v-640h160v-163l52 42l151 121h533v640h-896zM128 736h768v-512h-491l-9 -7l-108 -86v93h-160v512zM256 576v-64h512v64h-512zM256 448v-64h384v64h-384z" />
    <glyph glyph-name="snapchat-ghost" unicode="&#xedbf;" 
d="M502 832q-49 0 -97 -21q-79 -34 -116 -115q-15 -32 -16 -79.5t4 -80.5q-14 3 -17 4q-11 5 -22 5q-18 0 -35 -10q-23 -14 -27 -35q-4 -22 11 -40q13 -16 44 -28q2 -1 6 -2.5t6 -2.5q18 -6 23 -8q2 -1 4 -2.5l2 -1.5q0 -3 -3 -8l-1 -1q-2 -5 -6 -11.5t-16.5 -25
t-27.5 -32.5t-38.5 -28t-49.5 -18q-15 -2 -25 -14.5t-9 -27.5q0 -7 4 -15q9 -22 40 -35q16 -7 66 -16q1 -2 1 -4q3 -14 5 -20q5 -17 20 -25q9 -5 22 -5q7 0 22 3q21 4 37 4q15 0 27 -2q13 -2 46 -25q65 -45 121 -45h10q56 0 121 45q33 23 47 25q12 2 26 2q15 0 37 -4
q16 -3 23 -3q15 0 26 8q10 7 15 23q3 9 5 19q0 2 1 4q50 9 66 16q31 13 40 35q4 9 4 15q1 15 -8.5 27.5t-25.5 14.5q-58 9 -103 61q-7 8 -13 16t-9.5 14.5t-6.5 12t-4 7.5l-2 3l-1 2q-3 5 -3 8l2 1q2 2 4 3q5 2 23 8q2 1 7 3t6 2q26 10 39 23q16 17 16 37q-1 34 -39 48l-1 1
q-10 4 -24 4t-25 -5q-3 -1 -7.5 -2t-5.5 -1q5 33 4 80t-16 79q-37 82 -116 116q-46 20 -99 20h-18zM504 768h16q38 0 73 -15q57 -24 84 -84q14 -31 7 -136l-1 -2q0 -4 -0.5 -11.5t-0.5 -9.5q-1 -14 9 -24q8 -8 34 -14q-24 -14 -32 -32q-10 -24 3 -55q0 -1 1 -3v-2l1 -1
q15 -35 45 -69t83 -60q-30 -7 -33 -8q-22 -3 -31 -25q-2 -5 -6 -22q-28 5 -45 5q-19 0 -37 -3q-28 -5 -72 -35q-19 -13 -28 -18.5t-24.5 -10.5t-32.5 -5h-10q-36 0 -85 34q-45 31 -72 35q-18 3 -37 3q-23 0 -44 -4q-3 12 -6 20q-10 23 -32 26q-2 0 -32 8q38 18 69.5 50
t42 49.5t15.5 29.5l1 1q1 2 2 5l-2 1q13 33 4 54q-8 19 -33 33q28 6 35 13q10 10 9 24q0 3 -0.5 10.5t-0.5 12.5q-7 108 6 136q27 60 84 84q35 15 73 15z" />
    <glyph glyph-name="snapchat-square" unicode="&#xedc0;" 
d="M160 800v-704h704v704h-704zM224 736h576v-576h-576v576zM516 640h-4h-4q-8 0 -18 -2t-25 -8t-29 -20t-23 -35q-8 -20 -4 -93q-3 -1 -7 -1q-8 0 -18 5q-6 3 -14.5 -1t-10.5 -12q-2 -13 19 -22q1 0 9 -2.5t12.5 -5.5t6.5 -8q2 -6 -2 -15q-2 -3 -4 -7t-9 -15t-15 -19.5
t-21.5 -16.5t-27.5 -10q-7 -2 -7 -9q1 -18 52 -26q0 -1 0.5 -3t1 -4.5t1.5 -6t1 -5.5q2 -7 10 -7q2 0 6.5 1t10.5 1.5t12 0.5q14 0 21.5 -3t20.5 -13q32 -24 55 -22q25 -1 55 22l10.5 7.5t9 5t10.5 3t12 0.5q9 0 18 -1.5t12 -1.5q7 0 9 7q1 3 1.5 7.5t1.5 7.5t2 4
q44 8 50 22q2 4 0 8t-5 5q-11 2 -21 6.5t-17 10.5t-14 13.5t-11 13t-7.5 12t-4.5 8.5t-2 5q-4 9 -2 15q3 7 21 14q5 1 6 2q19 8 19 19q0 10 -11 15q-9 3 -16 0q-5 -3 -9 -4t-7 -1l-7 1q4 73 -4 93q-7 16 -17 28.5t-22.5 20.5t-26.5 12t-29 4z" />
    <glyph glyph-name="snapchat" unicode="&#xedc1;" 
d="M502 832q-49 0 -97 -21q-79 -34 -116 -115q-15 -32 -16 -79.5t4 -80.5q-14 3 -17 4q-11 5 -22 5q-18 0 -35 -10q-23 -14 -27 -35q-4 -22 11 -40q13 -16 44 -28q2 -1 6 -2.5t6 -2.5q18 -6 23 -8q2 -1 4 -2.5l2 -1.5q0 -3 -3 -8l-1 -1q-2 -5 -6 -11.5t-16.5 -25
t-27.5 -32.5t-38.5 -28t-49.5 -18q-15 -2 -25 -14.5t-9 -27.5q0 -7 4 -15q9 -22 40 -35q16 -7 66 -16q1 -2 1 -4q3 -14 5 -20q5 -17 20 -25q9 -5 22 -5q7 0 22 3q21 4 37 4q15 0 27 -2q13 -2 46 -25q65 -45 121 -45h10q56 0 121 45q33 23 47 25q12 2 26 2q15 0 37 -4
q16 -3 23 -3q15 0 26 8q10 7 15 23q3 9 5 19q0 2 1 4q50 9 66 16q31 13 40 35q4 9 4 15q1 15 -8.5 27.5t-25.5 14.5q-58 9 -103 61q-7 8 -13 16t-9.5 14.5t-6.5 12t-4 7.5l-2 3l-1 2q-3 5 -3 8l2 1q2 2 4 3q5 2 23 8q2 1 7 3t6 2q26 10 39 23q16 17 16 37q-1 34 -39 48l-1 1
q-10 4 -24 4t-25 -5q-3 -1 -7.5 -2t-5.5 -1q5 33 4 80t-16 79q-37 82 -116 116q-46 20 -99 20h-18zM504 768h16q38 0 73 -15q57 -24 84 -84q14 -31 7 -136l-1 -2q0 -4 -0.5 -11.5t-0.5 -9.5q-1 -14 9 -24q8 -8 34 -14q-24 -14 -32 -32q-10 -24 3 -55q0 -1 1 -3v-2l1 -1
q15 -35 45 -69t83 -60q-30 -7 -33 -8q-22 -3 -31 -25q-2 -5 -6 -22q-28 5 -45 5q-19 0 -37 -3q-28 -5 -72 -35q-19 -13 -28 -18.5t-24.5 -10.5t-32.5 -5h-10q-36 0 -85 34q-45 31 -72 35q-18 3 -37 3q-23 0 -44 -4q-3 12 -6 20q-10 23 -32 26q-2 0 -32 8q38 18 69.5 50
t42 49.5t15.5 29.5l1 1q1 2 2 5l-2 1q13 33 4 54q-8 19 -33 33q28 6 35 13q10 10 9 24q0 3 -0.5 10.5t-0.5 12.5q-7 108 6 136q27 60 84 84q35 15 73 15z" />
    <glyph glyph-name="snowboarding-solid" unicode="&#xedc2;" 
d="M672 832q-39 0 -67.5 -28.5t-28.5 -67.5t28.5 -67.5t67.5 -28.5t67.5 28.5t28.5 67.5t-28.5 67.5t-67.5 28.5zM337 795l-53 -36l74 -109q14 -20 37 -26l70 -18l-102 -99q-11 -11 -16.5 -26t-4 -30.5t9.5 -29.5l43 -74l-30 -34l-62 -69l72 -16l38 42l61 69l-11 20l-56 94
q-3 4 1 8l128 125l30 -25l-82 -86q-17 -18 -17.5 -44t16.5 -44l49 -54l-3 -43l-7 -92l63 -14l8 101l4 58l1 13l-9 11l-59 63l86 90l140 -117l41 50l-230 190l-5 5l-7 1l-144 37zM672 768q14 0 23 -9.5t9 -22.5t-9.5 -22.5t-22.5 -9.5t-22.5 9.5t-9.5 22.5t9.5 22.5t22.5 9.5
zM157 270l-58 -28l5 -9q16 -33 45 -55.5t65 -29.5l504 -106q16 -4 32 -4q38 0 72 17l24 12l-28 58l-24 -12q-30 -15 -63 -8l-504 106q-45 9 -66 51z" />
    <glyph glyph-name="snowflake-solid" unicode="&#xedc3;" 
d="M480 864v-114l-73 73l-46 -46l119 -119v-154l-132 79l-42 163l-62 -16l26 -100l-98 59l-33 -54l100 -60l-103 -26l16 -62l164 42l135 -81l-135 -81l-164 42l-16 -62l103 -26l-100 -60l33 -54l98 59l-26 -100l62 -16l42 163l132 79v-154l-119 -119l46 -46l73 73v-114h64
v114l73 -73l46 46l-119 119v154l132 -79l42 -163l62 16l-26 100l98 -59l33 54l-100 60l103 26l-16 62l-164 -42l-135 81l135 81l164 -42l16 62l-103 26l100 60l-33 54l-98 -59l26 100l-62 16l-42 -163l-132 -79v154l119 119l-46 46l-73 -73v114h-64z" />
    <glyph glyph-name="snowflake" unicode="&#xedc4;" 
d="M480 864v-114l-73 73l-46 -46l119 -119v-154l-132 79l-42 163l-62 -16l26 -100l-98 59l-33 -54l100 -60l-103 -26l16 -62l164 42l135 -81l-135 -81l-164 42l-16 -62l103 -26l-100 -60l33 -54l98 59l-26 -100l62 -16l42 163l132 79v-154l-119 -119l46 -46l73 73v-114h64
v114l73 -73l46 46l-119 119v154l132 -79l42 -163l62 16l-26 100l98 -59l33 54l-100 60l103 26l-16 62l-164 -42l-135 81l135 81l164 -42l16 62l-103 26l100 60l-33 54l-98 -59l26 100l-62 16l-42 -163l-132 -79v154l119 119l-46 46l-73 -73v114h-64z" />
    <glyph glyph-name="snowman-solid" unicode="&#xedc5;" 
d="M512 864q-109 0 -189 -20q-39 -10 -63 -24q-36 -21 -36 -52v-65q-52 -14 -77 -27q-21 -12 -34 -26q-17 -19 -17 -42q0 -38 46 -65q20 -12 46 -21q-28 -66 -28 -138q0 -146 103 -249t249 -103t249 103t103 249q0 72 -28 138q26 9 46 21q46 27 46 65q0 23 -17 42
q-13 14 -34 26q-25 13 -77 27v65q0 31 -36 52q-24 14 -63 24q-80 20 -189 20zM512 800q101 0 173 -18q32 -8 47 -17q3 -2 4 -3v-52q-1 -1 -4 -3q-15 -9 -47 -17q-72 -18 -173 -18t-173 18q-32 8 -47 17q-3 2 -4 3v52q1 1 4 3q15 9 47 17q72 18 173 18zM265 650
q25 -14 58 -22q80 -20 189 -20t189 20q36 9 58 21h2q54 -12 85 -29q12 -7 17 -12q-3 -4 -13 -10q-25 -15 -74 -27q-108 -27 -264 -27t-264 27q-49 12 -74 27q-10 6 -13 10q5 5 17 12q31 17 85 29q1 0 2 1zM252 505q113 -25 260 -25t260 25q28 -60 28 -121q0 -25 -5 -53
l-47 19q-40 16 -84 32q-47 17 -66 23q-36 11 -54 11q-39 0 -67.5 -28.5t-28.5 -67.5t28.5 -67.5t67.5 -28.5q18 0 54 11q19 6 66 23l84 32l41 17q-26 -93 -102.5 -152t-174.5 -59q-120 0 -204 84t-84 204q0 61 28 121zM416 480q-13 0 -22.5 -9.5t-9.5 -22.5t9.5 -22.5
t22.5 -9.5t22.5 9.5t9.5 22.5t-9.5 22.5t-22.5 9.5zM640 480q-13 0 -22.5 -9.5t-9.5 -22.5t9.5 -22.5t22.5 -9.5t22.5 9.5t9.5 22.5t-9.5 22.5t-22.5 9.5zM544 352l4 -1q5 -1 14.5 -3t17.5 -5q29 -9 62 -21q1 0 2.5 -1t2.5 -1q-1 0 -2.5 -1t-2.5 -1q-33 -12 -62 -21
q-8 -3 -17.5 -5t-14.5 -3l-4 -1q-14 0 -23 9t-9 23t9 23t23 9zM454 229l-46 -45q56 -56 136 -56t136 56l-45 45q-38 -38 -90.5 -38t-90.5 38z" />
    <glyph glyph-name="snowplow-solid" unicode="&#xedc6;" 
d="M336 768q-32 0 -57.5 -19.5t-34.5 -50.5l-42 -145l-64 21l-20 -60l47 -16l-9 -9q-28 -28 -28 -67v-70h-26l-5 -26l-32 -160l-8 -38h910l-8 38l-32 160l-5 26h-26v70q0 39 -28 67l-9 9l47 16l-20 60l-64 -21l-42 145q-9 31 -34.5 50.5t-57.5 19.5h-352zM336 704h352
q23 0 30 -23l39 -137h-490l39 137q7 23 30 23zM238 480h548l37 -36q9 -9 9 -22v-70h-64v64h-128v-64h-256v64h-128v-64h-64v70q0 13 9 22zM154 288h716l19 -96h-754z" />
    <glyph glyph-name="socks-solid" unicode="&#xedc7;" 
d="M318 896l-9 -31l-142 -499q-17 -56 6 -109.5t75 -79.5l2 -1l382 -159l2 -1q33 -16 70 -16q45 0 83.5 23.5t59.5 64.5q30 59 9 122.5t-80 92.5l-3 1l-22 9l-224 89l104 368l8 30l-290 87zM362 817l199 -60l-17 -60l-199 60zM327 695l199 -60l-69 -243l-7 -28l26 -11
l217 -86q-72 -72 -83 -172l-236 99q10 30 10 62q0 62 -36.5 111.5t-94.5 69.5zM236 376q37 -14 60.5 -46.5t23.5 -73.5q0 -17 -6 -37l-37 15q-32 16 -45.5 48t-3.5 67zM757 240q30 -20 39.5 -55t-6.5 -68q-27 -53 -86 -53q-15 0 -32 6q3 105 85 170z" />
    <glyph glyph-name="solar-panel-solid" unicode="&#xedc8;" 
d="M480 832v-83l-58 57l-44 -44l57 -58h-83v-64h83l-57 -58l44 -44l58 57v-83h64v83l58 -57l44 44l-57 58h83v64h-83l57 58l-44 44l-58 -57v83h-64zM512 736q26 0 45 -19t19 -45t-19 -45t-45 -19t-45 19t-19 45t19 45t45 19zM199 448l-71 -284v-100h768v100l-71 284h-626z
M249 384h526l57 -228v-28h-640v28zM288 352l-13 -58h67l10 58h-64zM416 352l-6 -58h67l3 58h-64zM544 352l3 -58h67l-6 58h-64zM672 352l10 -58h67l-13 58h-64zM262 230l-12 -70h73l10 70h-71zM406 230l-6 -70h74l3 70h-71zM547 230l3 -70h74l-6 70h-71zM691 230l10 -70h73
l-12 70h-71z" />
    <glyph glyph-name="sort-alpha-down-alt-solid" unicode="&#xedc9;" 
d="M160 800v-64h178l-169 -169l-9 -10v-77h256v64h-178l169 169l9 10v77h-256zM704 800v-598l-83 83l-45 -45l137 -138l23 -22l23 22l137 138l-45 45l-83 -83v598h-64zM262 416l-7 -21l-63 -171v-2l-30 -83l-2 -5v-38h64v27l13 37h102l13 -37v-27h64v38l-2 5l-30 83l-1 2
l-62 171l-7 21h-52zM288 299l27 -75h-54z" />
    <glyph glyph-name="sort-alpha-down-solid" unicode="&#xedca;" 
d="M262 800l-7 -21l-63 -171v-2l-30 -83l-2 -5v-38h64v27l13 37h102l13 -37v-27h64v38l-2 5l-30 83l-1 2l-62 171l-7 21h-52zM704 800v-598l-83 83l-45 -45l137 -138l23 -22l23 22l137 138l-45 45l-83 -83v598h-64zM288 683l27 -75h-54zM160 416v-64h178l-169 -169l-9 -10
v-77h256v64h-178l169 169l9 10v77h-256z" />
    <glyph glyph-name="sort-alpha-up-alt-solid" unicode="&#xedcb;" 
d="M160 800v-64h178l-169 -169l-9 -10v-77h256v64h-178l169 169l9 10v77h-256zM736 784l-23 -22l-137 -138l45 -45l83 83v-598h64v598l83 -83l45 45l-137 138zM262 416l-7 -21l-63 -171v-2l-30 -83l-2 -5v-38h64v27l13 37h102l13 -37v-27h64v38l-2 5l-30 83l-1 2l-62 171
l-7 21h-52zM288 299l27 -75h-54z" />
    <glyph glyph-name="sort-alpha-up-solid" unicode="&#xedcc;" 
d="M262 800l-7 -21l-63 -171v-2l-30 -83l-2 -5v-38h64v27l13 37h102l13 -37v-27h64v38l-2 5l-30 83l-1 2l-62 171l-7 21h-52zM736 784l-23 -22l-137 -138l45 -45l83 83v-598h64v598l83 -83l45 45l-137 138zM288 683l27 -75h-54zM160 416v-64h178l-169 -169l-9 -10v-77h256
v64h-178l169 169l9 10v77h-256z" />
    <glyph glyph-name="sort-amount-down-alt-solid" unicode="&#xedcd;" 
d="M128 800v-64h64v64h-64zM672 800v-598l-83 83l-45 -45l137 -138l23 -22l23 22l137 138l-45 45l-83 -83v598h-64zM128 672v-64h128v64h-128zM128 544v-64h192v64h-192zM128 416v-64h256v64h-256zM128 288v-64h320v64h-320zM128 160v-64h384v64h-384z" />
    <glyph glyph-name="sort-amount-down-solid" unicode="&#xedce;" 
d="M128 800v-64h384v64h-384zM672 800v-598l-83 83l-45 -45l137 -138l23 -22l23 22l137 138l-45 45l-83 -83v598h-64zM128 672v-64h320v64h-320zM128 544v-64h256v64h-256zM128 416v-64h192v64h-192zM128 288v-64h128v64h-128zM128 160v-64h64v64h-64z" />
    <glyph glyph-name="sort-amount-up-alt-solid" unicode="&#xedcf;" 
d="M128 800v-64h64v64h-64zM704 784l-23 -22l-137 -138l45 -45l83 83v-598h64v598l83 -83l45 45l-137 138zM128 672v-64h128v64h-128zM128 544v-64h192v64h-192zM128 416v-64h256v64h-256zM128 288v-64h320v64h-320zM128 160v-64h384v64h-384z" />
    <glyph glyph-name="sort-amount-up-solid" unicode="&#xedd0;" 
d="M128 800v-64h384v64h-384zM704 784l-23 -22l-137 -138l45 -45l83 83v-598h64v598l83 -83l45 45l-137 138zM128 672v-64h320v64h-320zM128 544v-64h256v64h-256zM128 416v-64h192v64h-192zM128 288v-64h128v64h-128zM128 160v-64h64v64h-64z" />
    <glyph glyph-name="sort-down-solid" unicode="&#xedd1;" 
d="M115 576l54 -55l320 -320l23 -22l23 22l320 320l54 55h-794zM270 512h484l-242 -242z" />
    <glyph glyph-name="sort-numeric-down-alt-solid" unicode="&#xedd2;" 
d="M272 800q-46 0 -79 -33t-33 -79v-16h64v16q0 21 13.5 34.5t34.5 13.5h32q21 0 34.5 -13.5t13.5 -34.5q0 -24 -30 -43q-23 -14 -59.5 -33t-43.5 -23q-27 -15 -39 -28q-20 -22 -20 -49v-32h256v64h-146q70 36 86 46q60 38 60 98q0 46 -33 79t-79 33h-32zM704 800v-598
l-83 83l-45 -45l137 -138l23 -22l23 22l137 138l-45 45l-83 -83v598h-64zM275 416l-5 -25q-5 -18 -18 -37q-23 -34 -60 -34v-64q54 0 96 45v-205h64v320h-77z" />
    <glyph glyph-name="sort-numeric-down-solid" unicode="&#xedd3;" 
d="M275 800l-5 -25q-5 -18 -18 -37q-23 -34 -60 -34v-64q54 0 96 45v-205h64v320h-77zM704 800v-598l-83 83l-45 -45l137 -138l23 -22l23 22l137 138l-45 45l-83 -83v598h-64zM272 416q-46 0 -79 -33t-33 -79v-16h64v16q0 21 13.5 34.5t34.5 13.5h32q21 0 34.5 -13.5
t13.5 -34.5q0 -24 -30 -43q-23 -14 -59.5 -33t-43.5 -23q-27 -15 -39 -28q-20 -22 -20 -49v-32h256v64h-146q70 36 86 46q60 38 60 98q0 46 -33 79t-79 33h-32z" />
    <glyph glyph-name="sort-numeric-up-alt-solid" unicode="&#xedd4;" 
d="M272 800q-46 0 -79 -33t-33 -79v-16h64v16q0 21 13.5 34.5t34.5 13.5h32q21 0 34.5 -13.5t13.5 -34.5q0 -25 -30 -43q-24 -14 -63 -34.5t-40 -21.5q-27 -16 -39 -28q-20 -22 -20 -49v-32h256v64h-146q71 37 86 46q26 16 43 42t17 56q0 46 -33 79t-79 33h-32zM736 784
l-23 -22l-137 -138l45 -45l83 83v-598h64v598l83 -83l45 45l-137 138zM275 416l-5 -25q-5 -19 -18 -37q-23 -34 -60 -34v-64q54 0 96 45v-205h64v320h-77z" />
    <glyph glyph-name="sort-numeric-up-solid" unicode="&#xedd5;" 
d="M275 800l-5 -25q-5 -19 -18 -37q-23 -34 -60 -34v-64q54 0 96 45v-205h64v320h-77zM736 784l-23 -22l-137 -138l45 -45l83 83v-598h64v598l83 -83l45 45l-137 138zM272 416q-46 0 -79 -33t-33 -79v-16h64v16q0 21 13.5 34.5t34.5 13.5h32q21 0 34.5 -13.5t13.5 -34.5
q0 -25 -30 -43q-17 -11 -36 -21l-38 -20t-29 -15q-27 -16 -39 -28q-20 -22 -20 -49v-32h256v64h-146q71 37 86 46q26 16 43 42t17 56q0 46 -33 79t-79 33h-32z" />
    <glyph glyph-name="sort-solid" unicode="&#xedd6;" 
d="M512 845l-23 -22l-256 -256l-54 -55h666l-54 55l-256 256zM512 754l178 -178h-356zM179 384l54 -55l256 -256l23 -22l23 22l256 256l54 55h-666zM334 320h356l-178 -178z" />
    <glyph glyph-name="sort-up-solid" unicode="&#xedd7;" 
d="M512 685l-23 -22l-320 -320l-54 -55h794l-54 55l-320 320zM512 594l242 -242h-484z" />
    <glyph glyph-name="soundcloud" unicode="&#xedd8;" 
d="M628 670q-42 0 -80 -15q-13 -4 -13 -15v-399q0 -13 14 -15h349q34 0 63 17t46 45.5t17 63.5q0 52 -37 89t-89 37q-25 0 -49 -10q-7 85 -70.5 143.5t-150.5 58.5zM510 641q-5 0 -9 -3q-5 -4 -5 -12l-6 -283l3 -52l3 -51q0 -5 4 -9.5t9.5 -4.5t9.5 4.5t5 9.5l6 103l-6 284
q-1 8 -7 12q-4 2 -7 2zM467 616q-4 0 -7 -2q-6 -3 -6 -11v-2l-5 -258l5 -105q0 -4 3 -7q4 -5 10 -5q5 0 8.5 4t4.5 9v10l5 94l-5 261q-1 6 -6 10q-3 2 -7 2zM338 586q-10 0 -10 -10l-7 -233l7 -107q0 -10 10 -10t10 10l8 107l-8 233q0 10 -10 10zM380.5 581
q-11.5 0 -11.5 -11l-6 -227l6 -105q0 -12 11 -12t12 12l6 105l-6 227q0 11 -11.5 11zM296 578q-9 0 -10 -9l-7 -226l7 -107q1 -10 10 -10t9 10l8 107l-8 226q0 9 -9 9zM423 574q-5 0 -8.5 -3.5t-3.5 -8.5l-5 -219l5 -105q0 -2 1 -4.5t2.5 -4t4 -2.5t4.5 -1q5 0 8.5 3.5
t4.5 8.5l6 105l-6 219q-1 5 -4.5 8.5t-8.5 3.5zM253 559q-8 0 -8 -8l-8 -208l8 -109q0 -8 8 -8t9 8l8 109l-8 208q-1 8 -9 8zM212 520q-7 0 -7 -7l-8 -170l8 -109q0 -8 7.5 -8t7.5 8l9 109l-9 170q0 7 -8 7zM130.5 462q-5.5 0 -6.5 -6l-9 -112l9 -109q1 -6 6.5 -6t5.5 6
l10 109l-10 112q0 6 -5.5 6zM90 458q-5 0 -5 -5l-10 -109l10 -106q0 -5 5 -5q4 0 5 5l11 106l-11 109q-1 5 -5 5zM171.5 454q-6.5 0 -7.5 -6l-8 -104l8 -110q1 -7 7.5 -7t6.5 7l10 110l-10 104q0 6 -6.5 6zM49.5 440q-3.5 0 -4.5 -4l-10 -92l10 -90q1 -5 4.5 -5t4.5 5l11 90
l-11 92q-1 4 -4.5 4zM11.5 404q-3.5 0 -3.5 -4l-8 -56l8 -56q0 -4 3.5 -4t4.5 4l8 56l-8 56q-1 4 -4.5 4z" />
    <glyph glyph-name="sourcetree" unicode="&#xedd9;" 
d="M512 832q-132 0 -226 -94t-94 -226q0 -95 52.5 -175t139.5 -118v-155h256v155q87 38 139.5 118t52.5 175q0 132 -94 226t-226 94zM512 768q106 0 181 -75t75 -181q0 -53 -21.5 -102t-60 -85t-89.5 -54l-21 -8v-135h-128v135l-21 8q-77 27 -124 93.5t-47 147.5
q0 106 75 181t181 75zM512 640q-53 0 -90.5 -37.5t-37.5 -90.5t37.5 -90.5t90.5 -37.5t90.5 37.5t37.5 90.5t-37.5 90.5t-90.5 37.5zM512 576q26 0 45 -19t19 -45t-19 -45t-45 -19t-45 19t-19 45t19 45t45 19z" />
    <glyph glyph-name="spa-solid" unicode="&#xedda;" 
d="M512 832q-70 0 -120 -48.5t-54 -117.5q-63 12 -119.5 -18t-79.5 -90q-24 -63 1.5 -125t85.5 -92q-40 -55 -31.5 -123.5t60.5 -112.5q56 -47 128.5 -40.5t119.5 62.5q2 3 4.5 8.5t3.5 7.5l4 -8t5 -9q47 -56 119.5 -62.5t128.5 40.5q52 44 60 112.5t-32 123.5
q61 30 87 92.5t2 125.5q-23 60 -79.5 90t-119.5 18q-4 69 -54 117.5t-120 48.5zM512 768q47 0 79.5 -32.5t32.5 -79.5q0 -8 -6 -26l-95 -135q21 69 21 81q0 13 -9.5 22.5t-22.5 9.5t-22.5 -9.5t-9.5 -22.5q0 -11 17 -78l-93 140q-4 14 -4 18q0 47 32.5 79.5t79.5 32.5z
M300 608q23 1 44 -7q1 0 13 -8l89 -135q-57 39 -69 43q-12 5 -24.5 -1t-16.5 -18q-5 -12 1 -24.5t18 -16.5q11 -4 81 -8l-162 -45q-4 1 -10 3q-44 16 -63 58.5t-2 86.5q12 32 40 51.5t61 20.5zM724 608q33 -1 61 -20.5t40 -51.5q17 -44 -2 -86.5t-63 -58.5q-8 -3 -21 -4
l-156 46q75 4 86 8q12 4 18 16.5t1 24.5q-4 12 -16.5 18t-24.5 1q-13 -5 -74 -46l97 140q7 5 10 6q21 8 44 7zM458 372q-63 -44 -71 -53q-9 -10 -7.5 -23.5t11.5 -22.5t23 -7.5t22 11.5q9 11 44 91v-118q-10 -62 -26 -82q-30 -36 -76 -40t-82 26t-40 76t26 82q6 7 21 16l4 2
zM569 370l153 -44q14 -9 19 -15q30 -36 26 -82t-40 -76t-82 -26t-76 40q-15 18 -25 77v124q35 -80 44 -91q9 -10 22 -11.5t23 7.5t11.5 22.5t-7.5 23.5q-8 9 -68 51z" />
    <glyph glyph-name="space-shuttle-solid" unicode="&#xeddb;" 
d="M64 832v-192h-64v-96h32v-192h-32v-96h64v-192h146q123 0 210 87l139 138l257 22q62 5 115.5 36.5t87.5 82.5l11 18l-11 18q-34 51 -87.5 82.5t-115.5 36.5l-257 22l-134 134l-5 4q-87 87 -210 87h-146zM128 768h82q97 0 165 -68l91 -92h-146v-64h224l266 -22
q77 -6 136 -74q-59 -68 -136 -74l-269 -22h-221v-64h146l-91 -92q-68 -68 -165 -68h-82v224h-32v192h32v224zM768 480v-64h64v64h-64zM192 288v-96h64v96h-64z" />
    <glyph glyph-name="speakap" unicode="&#xeddc;" 
d="M492.5 864q-107.5 0 -199 -53.5t-144.5 -145.5t-53 -200q0 -66 19 -127.5t60.5 -117.5t101 -97.5t146 -66t190.5 -24.5q92 0 217 36l66 19l-55 42q-31 24 -67 56q56 56 85.5 128.5t29.5 151.5q0 108 -53 200t-144.5 145.5t-199 53.5zM493 800q90 0 166.5 -45t121 -122
t44.5 -168q0 -138 -96 -235l-47 -47l49 -45q14 -12 25 -22q-6 -2 -12.5 -3.5t-13.5 -2.5t-14 -2.5t-14.5 -3t-15 -2.5l-15 -2t-15 -1.5t-14.5 -1t-14.5 -1t-14.5 -0.5q-96 0 -174.5 22t-129.5 58.5t-85.5 85.5t-49 99.5t-14.5 103.5q0 68 26.5 130t71 107t106 71.5
t129.5 26.5zM520 672q-64 1 -108 -33t-45 -93q-1 -57 47 -87q19 -12 56.5 -24t58.5 -24t20 -34q0 -22 -20 -31.5t-41 -8.5q-47 0 -75 39l-63 -68q53 -51 132 -52q8 0 17.5 0.5t29 3.5t36 12t33.5 22t27.5 36.5t10.5 53.5q1 60 -45 89q-15 9 -35 16.5t-36 12.5t-31 11
t-23.5 15.5t-7.5 23.5q0 16 13.5 26t25 12t20.5 1h1h4t6.5 -0.5t8 -1.5t8.5 -2.5t9 -3.5t9 -4.5t8.5 -6.5t7.5 -8l61 65q-10 10 -22 17.5t-39 16t-59 9.5z" />
    <glyph glyph-name="speaker-deck" unicode="&#xeddd;" 
d="M256 704q-66 0 -113 -47t-47 -113t47 -113t113 -47h192q13 0 22.5 -9.5t9.5 -22.5t-9.5 -22.5t-22.5 -9.5h-288q-26 0 -45 -19t-19 -45t19 -45t45 -19h288q66 0 113 47t47 113t-47 113t-113 47h-192q-13 0 -22.5 9.5t-9.5 22.5t9.5 22.5t22.5 9.5h224q26 0 45 19t19 45
t-19 45t-45 19h-224zM590 704q18 -30 18 -64q0 -6 -0.5 -11.5t-1.5 -11t-2.5 -11t-3.5 -10.5t-4.5 -10t-5.5 -10h178q13 0 22.5 -9.5t9.5 -22.5v-192q0 -13 -9.5 -22.5t-22.5 -9.5h-99q-10 -75 -65 -128h196q53 0 90.5 37.5t37.5 90.5v256q0 53 -37.5 90.5t-90.5 37.5h-210z
" />
    <glyph glyph-name="spell-check-solid" unicode="&#xedde;" 
d="M235 800l-139 -416h67l32 96h146l32 -96h68l-139 416h-67zM480 800v-416h192q53 0 90.5 37.5t37.5 90.5q0 20 -6 38.5t-16.5 34t-25.5 27t-32 19.5q16 27 16 57q0 46 -33 79t-79 33h-144zM544 736h80q20 0 34 -14t14 -34t-14 -34t-34 -14h-80v96zM268 699l52 -155h-103z
M544 576h128q26 0 45 -19t19 -45t-19 -45t-45 -19h-128v128zM890 391l-278 -267l-126 121l-44 -46l170 -163l322 309z" />
    <glyph glyph-name="spider-solid" unicode="&#xeddf;" 
d="M224 864v-175l12 -10l129 -103h-98l-120 90l-38 -52l136 -102h114l-115 -96h-148v-64h172l8 7l45 37q0 -1 -0.5 -5.5t-0.5 -6.5q0 -6 1 -17l-120 -120l-9 -10v-205h64v178l82 82q14 -39 34 -70q60 -94 140 -94t140 94q20 31 34 70l82 -82v-178h64v205l-9 10l-120 120
q1 12 1 17q0 2 -0.5 6t-0.5 5l45 -36l9 -7h171v64h-149l-120 96h120l136 102l-38 52l-120 -90h-98l129 103l12 10v175h-64v-145l-100 -80q-7 28 -28 52v109h-64v-69q-20 5 -32 5t-32 -5v69h-64v-109q-21 -24 -28 -52l-100 80v145h-64zM512 672q27 0 45.5 -18.5t18.5 -45.5
t-18.5 -45.5t-45.5 -18.5t-45.5 18.5t-18.5 45.5t18.5 45.5t45.5 18.5zM512 480q59 0 94 -25q34 -25 34 -71q0 -63 -42 -128q-41 -64 -86 -64t-86 64q-42 65 -42 128q0 46 34 71q35 25 94 25z" />
    <glyph glyph-name="spinner-solid" unicode="&#xede0;" 
d="M512 864q-40 0 -68 -28t-28 -68t28 -68t68 -28t68 28t28 68t-28 68t-68 28zM286 754q-33 0 -56.5 -23.5t-23.5 -56.5t23.5 -56.5t56.5 -23.5t56.5 23.5t23.5 56.5t-23.5 56.5t-56.5 23.5zM738 706q-13 0 -22.5 -9.5t-9.5 -22.5t9.5 -22.5t22.5 -9.5t22.5 9.5t9.5 22.5
t-9.5 22.5t-22.5 9.5zM192 520q-30 0 -51 -21t-21 -51t21 -51t51 -21t51 21t21 51t-21 51t-51 21zM832 488q-17 0 -28.5 -11.5t-11.5 -28.5t11.5 -28.5t28.5 -11.5t28.5 11.5t11.5 28.5t-11.5 28.5t-28.5 11.5zM286 286q-27 0 -45.5 -18.5t-18.5 -45.5t18.5 -45.5
t45.5 -18.5t45.5 18.5t18.5 45.5t-18.5 45.5t-45.5 18.5zM738 270q-20 0 -34 -14t-14 -34t14 -34t34 -14t34 14t14 34t-14 34t-34 14zM512 184q-23 0 -39.5 -16.5t-16.5 -39.5t16.5 -39.5t39.5 -16.5t39.5 16.5t16.5 39.5t-16.5 39.5t-39.5 16.5z" />
    <glyph glyph-name="splotch-solid" unicode="&#xede1;" 
d="M556 803q-53 -1 -89 -40l-62 -73q-18 -20 -51 -18h-99q-40 0 -72 -18.5t-47 -49.5q-26 -56 15 -106l64 -65q13 -16 3 -37l-46 -80q-13 -28 -9.5 -57t22.5 -53q22 -27 56 -38t69 -3l93 25q29 6 52 -12l81 -58q33 -26 76 -26q27 0 52 11q29 13 47 37.5t20 54.5l6 89
q2 23 27 37l73 44q29 16 45 43.5t14 59.5q-1 16 -7 30.5t-16 27t-23.5 22t-29.5 15.5l-92 33q-26 9 -32 33l-22 87q-8 30 -30 51t-54 30q-17 4 -34 4zM560 739l14 -2q31 -8 38 -35l22 -87q6 -27 25.5 -47.5t46.5 -30.5l92 -33q15 -5 24 -15.5t10 -23.5q2 -27 -27 -43
l-73 -44q-25 -14 -41 -37t-17 -51l-7 -89q-1 -15 -10 -24t-19 -14q-11 -6 -30 -5t-34 13l-80 58q-33 26 -77 26q-15 0 -30 -3l-92 -25q-38 -9 -60 19q-16 20 -6 40l46 81q28 59 -12 108l-64 66q-8 9 -8.5 19.5t3.5 15.5q6 13 22 22.5t39 9.5h96q61 -5 102 39l62 74
q9 10 20.5 14t24.5 4z" />
    <glyph glyph-name="spotify" unicode="&#xede2;" 
d="M512 832q-159 0 -271.5 -112.5t-112.5 -271.5t112.5 -271.5t271.5 -112.5t271.5 112.5t112.5 271.5t-112.5 271.5t-271.5 112.5zM512 768q133 0 226.5 -93.5t93.5 -226.5t-93.5 -226.5t-226.5 -93.5t-226.5 93.5t-93.5 226.5t93.5 226.5t226.5 93.5zM461 616
q-98 0 -168 -22q-25 -5 -25 -32q0 -15 9.5 -25t23.5 -8q4 0 10.5 1.5t8.5 1.5q64 16 141 16q156 0 257 -59q18 -6 19 -6q30 0 35 33q0 23 -19 32q-120 68 -292 68zM452 497q-67 0 -138 -19q-21 -8 -21 -30q0 -11 7.5 -19t19.5 -8q7 0 16 3q48 13 114 13q132 0 224 -57
q10 -5 19 -5q12 0 19.5 8.5t7.5 21.5q0 19 -16 27q-105 65 -252 65zM461 380q-69 0 -133 -16q-19 -5 -19 -24q0 -9 6 -15.5t16 -6.5q1 0 7 1.5t9 1.5q56 13 111 13q101 0 181 -46q10 -5 17 -5q19 0 24 19q0 15 -14 24q-91 54 -205 54z" />
    <glyph glyph-name="spray-can-solid" unicode="&#xede3;" 
d="M384 896v-192h64v-34q-58 -6 -105 -34t-65 -52l-18 -25l-4 -7v-552h448v552l-4 7q-2 4 -7 10.5t-21.5 24t-36.5 31.5t-53 27.5t-70 17.5v34h64v192h-192zM768 896q-13 0 -22.5 -9.5t-9.5 -22.5t9.5 -22.5t22.5 -9.5t22.5 9.5t9.5 22.5t-9.5 22.5t-22.5 9.5zM448 832h64
v-64h-64v64zM672 832q-13 0 -22.5 -9.5t-9.5 -22.5t9.5 -22.5t22.5 -9.5t22.5 9.5t9.5 22.5t-9.5 22.5t-22.5 9.5zM768 768q-13 0 -22.5 -9.5t-9.5 -22.5t9.5 -22.5t22.5 -9.5t22.5 9.5t9.5 22.5t-9.5 22.5t-22.5 9.5zM480 608q70 0 118 -32h-236q48 32 118 32zM320 512h320
v-448h-320v448zM480 384q-39 0 -67.5 -28.5t-28.5 -67.5t28.5 -67.5t67.5 -28.5t67.5 28.5t28.5 67.5t-28.5 67.5t-67.5 28.5zM480 320q14 0 23 -9t9 -23t-9 -23t-23 -9t-23 9t-9 23t9 23t23 9z" />
    <glyph glyph-name="square-full-solid" unicode="&#xede4;" 
d="M192 768v-640h640v640h-640z" />
    <glyph glyph-name="square-root-alt-solid" unicode="&#xede5;" 
d="M618 768l-8 -21l-197 -514l-96 197l-9 18h-116v-64h76l116 -238l9 -18h48l8 21l213 555h170v64h-214z" />
    <glyph glyph-name="square-solid" unicode="&#xede6;" 
d="M192 768v-640h640v640h-640z" />
    <glyph glyph-name="square" unicode="&#xede7;" 
d="M192 768v-640h640v640h-640zM256 704h512v-512h-512v512z" />
    <glyph glyph-name="squarespace" unicode="&#xede8;" 
d="M414 768q-32 0 -54 -22l-187 -187q-45 -45 -45 -109t45 -109t109 -45t110 45l245 245q8 8 10.5 18t0 19.5t-10.5 17.5q-11 11 -27 11t-27 -11l-246 -246q-23 -22 -55 -22t-54 22q-23 23 -23 55t23 55l241 240q-23 23 -55 23zM610 768q-64 0 -109 -45l-246 -246
q-5 -6 -8 -13t-3 -14.5t3 -14.5t8 -12q11 -12 27 -12t28 12l245 245q23 23 55 23t54 -23q12 -11 28 -11t27 11t11 27t-11 28q-45 45 -109 45zM774 601q-64 0 -110 -46l-245 -245q-8 -8 -10.5 -18t0 -20t10.5 -17q11 -11 27 -11t27 11l246 246q23 22 55 22t54 -22
q23 -23 23 -55t-23 -55l-241 -240q8 -8 17 -13t18.5 -7.5t19.5 -2.5t19.5 2.5t18.5 7.5t16 13l187 186q29 30 40 69.5t0 79.5t-40 69q-45 46 -109 46zM774 485q-16 0 -28 -12l-245 -245q-23 -23 -55 -23t-55 23q-5 5 -12.5 8t-14.5 3t-14.5 -3t-12.5 -8q-11 -12 -11 -28
t11 -27q45 -45 109 -45t109 45l246 246q11 11 11 27t-11 27.5t-27 11.5z" />
    <glyph glyph-name="stack-exchange" unicode="&#xede9;" 
d="M288 832q-53 0 -90.5 -37.5t-37.5 -90.5v-448q0 -53 37.5 -90.5t90.5 -37.5h256v-135h50l10 10l118 125h14q53 0 90.5 37.5t37.5 90.5v448q0 53 -37.5 90.5t-90.5 37.5h-448zM288 768h448q27 0 45.5 -18.5t18.5 -45.5v-32h-576v32q0 27 18.5 45.5t45.5 18.5zM224 608h576
v-96h-576v96zM224 448h576v-96h-576v96zM224 288h576v-32q0 -27 -18.5 -45.5t-45.5 -18.5h-42l-9 -10l-77 -81v91h-320q-27 0 -45.5 18.5t-18.5 45.5v32z" />
    <glyph glyph-name="stack-overflow" unicode="&#xedea;" 
d="M627 869l-52 -36l179 -263l52 36zM492 751l-42 -48l240 -208l42 48zM396 611l-29 -57l283 -144l29 57zM341 466l-14 -62l309 -73l14 62zM192 384v-352h576v352h-64v-288h-448v288h-64zM323 330l-4 -64l317 -18l4 64zM320 224v-64h318v64h-318z" />
    <glyph glyph-name="stackpath" unicode="&#xedeb;" 
d="M160 800v-704h704v704h-704zM224 736h576v-576h-576v576zM345 544q-28 0 -50 -13.5t-22 -38.5q0 -22 14.5 -35t55.5 -26q17 -6 23 -11.5t6 -15.5q0 -19 -26 -19q-35 0 -35 30h-42l-1 -1q0 -30 23 -46t55 -16q31 0 50.5 14t19.5 38q0 23 -14.5 37.5t-49.5 24.5
q-21 7 -28.5 12t-7.5 13q0 9 7.5 14.5t20.5 5.5q14 0 21.5 -7t7.5 -18l42 1q1 23 -17 40t-53 17zM448 543v-190h44v65h27q32 0 52.5 16.5t20.5 45.5q0 7 -1 13t-3.5 11.5t-6 10.5t-8 9.5t-10.5 7.5t-12.5 5.5t-14.5 4t-17 1.5h-71zM647 543l-66 -190h41l67 190h-42zM725 543
l-65 -190h41l67 190h-43zM492 509h27q16 0 22.5 -9t6.5 -20t-6.5 -19.5t-22.5 -8.5h-27v57z" />
    <glyph glyph-name="stamp-solid" unicode="&#xedec;" 
d="M512 867q-79 0 -134.5 -55.5t-55.5 -134.5q0 -66 53 -140q16 -22 22.5 -32t12.5 -26t6 -32v-102l-263 -58l-25 -5v-154h32v-32q0 -29 21 -47q19 -17 46 -17h570q27 0 46 17q21 18 21 47v32h32v154l-25 5l-263 58v102q0 16 6 32t12.5 26t22.5 32q53 74 53 140
q0 79 -55.5 134.5t-134.5 55.5zM512 803q53 0 89.5 -36.5t36.5 -89.5q0 -29 -10 -51t-31 -52q-18 -25 -25.5 -36.5t-17.5 -38t-10 -52.5v-95h-64v95q0 26 -10 52.5t-17.5 38t-25.5 36.5q-14 20 -21.5 32.5t-13.5 31.5t-6 39q0 53 36.5 89.5t89.5 36.5zM448 288h128l256 -57
v-39h-640v39zM224 128h576v-31q-2 -1 -3 -1h-570q-2 0 -3 1v31z" />
    <glyph glyph-name="star-and-crescent-solid" unicode="&#xeded;" 
d="M464 832q-152 0 -259.5 -113t-107.5 -271t107.5 -271t259.5 -113q155 0 270 109l-22 23l-16 28q-54 -32 -152 -32q-108 0 -182 72.5t-74 183.5t74.5 183.5t181.5 72.5q97 0 151 -30l7 13l2 2l-7 -15l1 -1l16 27l23 23q-116 109 -273 109zM464 768q17 0 42 -3
q-120 -14 -201 -103t-81 -214t81.5 -214t201.5 -103q-27 -3 -43 -3q-126 0 -214.5 93.5t-88.5 226.5t88.5 226.5t214.5 93.5zM819 608l-69 -99l-109 39l67 -100l-68 -98l110 37l68 -99v122l110 38l-110 38z" />
    <glyph glyph-name="star-half-alt-solid" unicode="&#xedee;" 
d="M512 884l-29 -65l-104 -234l-254 -26l-72 -8l54 -48l189 -171l-53 -250l-14 -70l62 36l221 127l284 -163l-15 70l-53 250l189 171l54 48l-72 8l-254 26l-104 234zM512 727l82 -185l8 -16l18 -2l202 -21l-151 -136l-14 -12l4 -18l42 -198l-175 101l-16 9v478z" />
    <glyph glyph-name="star-half-solid" unicode="&#xedef;" 
d="M512 892l-133 -299l-326 -35l243 -219l-68 -320l284 164v709z" />
    <glyph glyph-name="star-half" unicode="&#xedf0;" 
d="M512 892l-133 -299l-326 -35l243 -219l-68 -320l284 164v709z" />
    <glyph glyph-name="star-of-david-solid" unicode="&#xedf1;" 
d="M512 894l-27 -45l-108 -177h-271l29 -49l106 -175l-106 -175l-29 -49h271l108 -177l27 -45l27 45l108 177h274l-30 49l-107 175l137 224h-274l-108 177zM512 771l60 -99h-120zM220 608h119l-60 -98zM413 608h199l97 -160l-97 -160h-199l-96 160zM686 608h121l-60 -99z
M747 387l60 -99h-121zM279 386l60 -98h-119zM452 224h120l-60 -99z" />
    <glyph glyph-name="star-of-life-solid" unicode="&#xedf2;" 
d="M416 832v-218l-189 109l-96 -166l189 -109l-189 -109l96 -166l189 109v-218h192v218l189 -109l96 166l-189 109l189 109l-96 166l-189 -109v218h-192zM480 768h64v-265l229 133l32 -56l-229 -132l229 -132l-32 -56l-229 133v-265h-64v265l-229 -133l-32 56l229 132
l-229 132l32 56l229 -133v265z" />
    <glyph glyph-name="star-solid" unicode="&#xedf3;" 
d="M971 558l-326 35l-133 299l-133 -299l-326 -35l243 -219l-68 -320l284 164l284 -164l-68 320z" />
    <glyph glyph-name="star" unicode="&#xedf4;" 
d="M512 892l-29 -66l-104 -233l-254 -27l-72 -8l54 -48l189 -171l-53 -250l-15 -70l63 36l221 128l221 -128l63 -36l-15 70l-53 250l189 171l54 48l-72 8l-254 27l-104 233zM512 735l82 -185l8 -17l18 -2l201 -21l-150 -135l-14 -13l4 -18l42 -197l-175 100l-16 10l-16 -10
l-175 -100l42 197l4 18l-14 13l-150 135l219 23l8 17z" />
    <glyph glyph-name="staylinked" unicode="&#xedf5;" 
d="M514 832q-8 1 -16 -5l-301 -243q-11 -9 -1 -18l61 -62l250 -247q10 -10 21 -1l72 58l12 9q11 9 1 19l-83 81q-3 3 -6.5 4t-7.5 0t-7 -3q-11 -9 -21 0l-137 138q-4 4 -3.5 9t4.5 9l134 107q11 8 21 -1l233 -238q10 -9 21 -1l66 54q11 9 1 18l-306 309q-1 1 -3.5 2t-4.5 2z
M496 645q-6 0 -11 -3l-83 -66q-11 -8 -2 -18l100 -96q9 -10 20 -1t20 0l123 -122q9 -10 -2 -18l-135 -111q-5 -4 -11 -3.5t-10 4.5l-221 220q-9 10 -20 1l-67 -52q-11 -9 -2 -18l304 -294q11 -10 25 1l288 246q11 8 1 18l-64 62l-244 246q-3 4 -9 4z" />
    <glyph glyph-name="steam-square" unicode="&#xedf6;" 
d="M160 800v-352l122 -51q38 49 98 51l69 104q3 64 49 108t110 44q66 0 113 -47t47 -113q0 -64 -44 -110t-108 -49l-104 -69q-2 -52 -39 -88t-89 -36q-53 0 -90.5 37.5t-37.5 90.5q0 5 2 18l-98 41v-283h704v704h-704zM608 640q-40 0 -68 -28t-28 -68t28 -68t68 -28t68 28
t28 68t-28 68t-68 28zM608 608q27 0 45.5 -18.5t18.5 -45.5t-18.5 -45.5t-45.5 -18.5t-45.5 18.5t-18.5 45.5t18.5 45.5t45.5 18.5zM384 384q-22 0 -39 -13l51 -21q12 -5 17.5 -17.5t0.5 -24.5q-8 -20 -30 -20q-7 0 -12 2l-51 22q3 -24 21 -40t42 -16q27 0 45.5 18.5
t18.5 45.5t-18.5 45.5t-45.5 18.5z" />
    <glyph glyph-name="steam-symbol" unicode="&#xedf7;" 
d="M704 768q-78 0 -134 -54.5t-58 -132.5l-117 -168q-14 3 -27 3q-45 0 -82 -26l-158 63v-172l99 -39q11 -49 50.5 -81.5t90.5 -32.5q52 0 92 33.5t49 84.5l185 138h10q79 0 135.5 56.5t56.5 135.5t-56.5 135.5t-135.5 56.5zM704 704q53 0 90.5 -37.5t37.5 -90.5
t-37.5 -90.5t-90.5 -37.5t-90.5 37.5t-37.5 90.5t37.5 90.5t90.5 37.5zM704 672q-40 0 -68 -28t-28 -68t28 -68t68 -28t68 28t28 68t-28 68t-68 28zM368 384q46 0 79 -33t33 -79t-33 -79t-79 -33q-34 0 -61.5 18.5t-40.5 47.5l73 -28q14 -6 29 -6q16 0 30.5 6t26 17.5
t17.5 26.5q13 31 -0.5 61.5t-44.5 42.5l-72 29q20 9 43 9z" />
    <glyph glyph-name="steam" unicode="&#xedf8;" 
d="M512 864q-172 0 -294 -122t-122 -294t122 -294t294 -122t294 122t122 294t-122 294t-294 122zM512 800q146 0 249 -103t103 -249t-103 -249t-249 -103q-121 0 -215.5 74.5t-124.5 189.5l117 -51q4 -36 31 -60.5t64 -24.5q40 0 68 28t28 68v2v1l133 93q52 3 87.5 40
t35.5 88q0 53 -37.5 90.5t-90.5 37.5q-34 0 -63 -16.5t-46 -44.5t-18 -62l-94 -133h-1h-2q-31 0 -57 -19l-166 72q8 138 109.5 234.5t241.5 96.5zM608 640q40 0 68 -28t28 -68t-28 -68t-68 -28t-68 28t-28 68t28 68t68 28zM608 608q-27 0 -45.5 -18.5t-18.5 -45.5
t18.5 -45.5t45.5 -18.5t45.5 18.5t18.5 45.5t-18.5 45.5t-45.5 18.5zM384 384q27 0 45.5 -18.5t18.5 -45.5t-18.5 -45.5t-45.5 -18.5q-19 0 -34.5 10.5t-23.5 27.5l25 -11q9 -4 19 -4q32 0 44 29q4 9 4 18.5t-3.5 18t-10 15.5t-15.5 11l-24 10q10 3 19 3z" />
    <glyph glyph-name="step-backward-solid" unicode="&#xedf9;" 
d="M256 800v-704h64v336l14 -10l466 -323v698l-50 -35l-430 -298v336h-64zM736 675v-454l-328 227z" />
    <glyph glyph-name="step-forward-solid" unicode="&#xedfa;" 
d="M704 800v-336l-14 10l-466 323v-698l50 35l430 298v-336h64v704h-64zM288 675l328 -227l-328 -227v454z" />
    <glyph glyph-name="stethoscope-solid" unicode="&#xedfb;" 
d="M224 832q-39 0 -57 -36q-31 -9 -51 -34.5t-20 -57.5v-300l8 -9q3 -4 9 -10t24.5 -22t39 -29t51 -26t60.5 -17v-67q0 -79 56.5 -135.5t135.5 -56.5t135.5 56.5t56.5 135.5v160q0 27 18.5 45.5t45.5 18.5t45.5 -18.5t18.5 -45.5v-6q-28 -10 -46 -34.5t-18 -55.5
q0 -39 28.5 -67.5t67.5 -28.5t67.5 28.5t28.5 67.5q0 31 -18 55.5t-46 34.5v6q0 53 -37.5 90.5t-90.5 37.5t-90.5 -37.5t-37.5 -90.5v-160q0 -53 -37.5 -90.5t-90.5 -37.5t-90.5 37.5t-37.5 90.5v67q48 7 94 33t68 48l22 23l8 9v300q0 32 -20 57.5t-51 34.5q-18 36 -57 36
q-27 0 -45.5 -18.5t-18.5 -45.5t18.5 -45.5t45.5 -18.5q32 0 51 26q13 -9 13 -26v-274q-77 -78 -160 -78t-160 78v274q0 17 13 26q19 -26 51 -26q27 0 45.5 18.5t18.5 45.5t-18.5 45.5t-45.5 18.5zM832 320q14 0 23 -9t9 -23t-9 -23t-23 -9t-23 9t-9 23t9 23t23 9z" />
    <glyph glyph-name="sticker-mule" unicode="&#xedfc;" 
d="M839 800q-2 0 -10.5 -17t-11.5 -17q-1 -1 -10 0.5t-19.5 1.5t-30 -6.5t-40.5 -19.5q-33 -18 -116 -87q-3 -2 -19.5 -7.5t-28.5 -14.5q-26 -18 -64 -20.5t-57 1t-26 6.5q-72 17 -113 18.5t-58 -6t-41 -28.5q-26 -22 -33 -51q-2 -9 -1 -22.5t3 -23t4.5 -22t2.5 -18.5
q2 -17 1 -21.5t1 -32.5t9 -76h2q4 -1 4 -2q0 -4 -0.5 -7t-1.5 -5t-2 -3.5l-1 -1.5q-3 -10 0 -21q11 -39 11 -62q0 -57 3 -66q3 -6 7 -8.5t9 -4t7 -3.5q2 -1 1.5 -7.5t-0.5 -8.5q1 -4 9 -7q9 -3 22.5 -1.5t17.5 4.5q0 1 1 4l3 3q13 0 19 3q8 4 2 14q-9 18 -13 22q-2 1 -6 4
l-4 2q-3 3 -6.5 9.5t-5.5 11t-2 5.5q-14 59 -5 88q3 10 16 39t24.5 53t12.5 25q4 7 15 10t21 -1q1 0 11 -7t29.5 -15.5t46.5 -13.5q39 -6 63 -5t53.5 4t33.5 3q2 -4 1 -8t-2 -19t0 -29v-21t-2 -8t-3 -11q-1 -5 0 -24.5t-2 -38.5q-1 -3 -6.5 -21t-4.5 -26q1 -3 2 -5
q1 -11 6 -13q3 -2 8.5 -2t5 -1.5t-0.5 -11.5q-4 -16 2 -20q3 -3 13.5 -4t21 0t14.5 3q1 1 2 2.5t2 3.5t4 4q1 0 5 0.5t7 2.5t3 5q0 1 -1.5 5.5t-4 9t-4.5 8.5l-2 4q-2 2 -8 5t-7 6q-6 14 -4.5 36t5.5 32l5 20t6 23q7 28 12.5 53.5t9.5 38.5l0.5 2t1.5 5t2 6.5t2.5 7t2.5 7
t2.5 7t2.5 4.5q11 22 44 64q12 15 35 46t35 47q1 1 4 5t4 5t3.5 2.5t5.5 1t7 -3.5q5 -2 13.5 -5.5t15.5 -7t13 -9.5q9 -8 12.5 -13.5t3.5 -11v-6.5q1 -3 4 -6.5t7 -5t9 -1.5l18 4q4 1 9 10q1 2 2.5 4.5t3 4t2.5 4t1.5 5t0.5 5t-0.5 4t-1 3.5t-2.5 6.5t-4.5 10.5t-7.5 18.5
l-11 27.5l-6 15t-3 6t-3 8t-6 20l-1.5 6t-1.5 5.5t-2 5.5t-2 5t-2 5q-2 5 -4 9l-2 4q0 2 10 19q26 42 16 43q-4 0 -8 -3.5t-9.5 -10t-10.5 -8.5q-5 -3 -9 -6q-3 -1 -5 -1q-6 0 -8 7q-1 2 -1 6t0.5 9t0 9t-1.5 7t-3 3z" />
    <glyph glyph-name="sticky-note-solid" unicode="&#xedfd;" 
d="M160 800v-704h493l10 9l192 192l9 10v493h-704zM224 736h576v-384h-192v-192h-384v576zM672 288h82l-82 -82v82z" />
    <glyph glyph-name="sticky-note" unicode="&#xedfe;" 
d="M160 800v-704h493l10 9l192 192l9 10v493h-704zM224 736h576v-384h-192v-192h-384v576zM672 288h82l-82 -82v82z" />
    <glyph glyph-name="stop-circle-solid" unicode="&#xedff;" 
d="M512 864q-172 0 -294 -122t-122 -294t122 -294t294 -122t294 122t122 294t-122 294t-294 122zM512 800q145 0 248.5 -103.5t103.5 -248.5t-103.5 -248.5t-248.5 -103.5t-248.5 103.5t-103.5 248.5t103.5 248.5t248.5 103.5zM352 608v-320h320v320h-320zM416 544h192v-192
h-192v192z" />
    <glyph glyph-name="stop-circle" unicode="&#xee00;" 
d="M512 864q-172 0 -294 -122t-122 -294t122 -294t294 -122t294 122t122 294t-122 294t-294 122zM512 800q145 0 248.5 -103.5t103.5 -248.5t-103.5 -248.5t-248.5 -103.5t-248.5 103.5t-103.5 248.5t103.5 248.5t248.5 103.5zM352 608v-320h320v320h-320zM416 544h192v-192
h-192v192z" />
    <glyph glyph-name="stop-solid" unicode="&#xee01;" 
d="M192 768v-640h640v640h-640zM256 704h512v-512h-512v512z" />
    <glyph glyph-name="stopwatch-solid" unicode="&#xee02;" 
d="M416 832v-64h192v64h-192zM512 736q-146 0 -249 -103t-103 -249t103 -249t249 -103t249 103t103 249q0 140 -96 242l55 55l-46 46l-58 -58q-92 67 -207 67zM512 672q120 0 204 -84t84 -204t-84 -204t-204 -84t-204 84t-84 204t84 204t204 84zM480 608v-169
q-32 -19 -32 -55t32 -55v-41h64v41q32 19 32 55t-32 55v169h-64z" />
    <glyph glyph-name="store-alt-solid" unicode="&#xee03;" 
d="M128 832v-117l-96 -128v-11q0 -39 28.5 -67.5t67.5 -28.5v-416h512v288h64v-288h192v416q39 0 67.5 28.5t28.5 67.5v11l-96 128v117h-768zM192 768h640v-32h-640v32zM176 672h672l77 -103q-6 -25 -29 -25q-13 0 -22.5 9.5t-9.5 22.5h-64q0 -13 -9.5 -22.5t-22.5 -9.5
t-22.5 9.5t-9.5 22.5h-64q0 -13 -9.5 -22.5t-22.5 -9.5t-22.5 9.5t-9.5 22.5h-64q0 -13 -9.5 -22.5t-22.5 -9.5t-22.5 9.5t-9.5 22.5h-64q0 -13 -9.5 -22.5t-22.5 -9.5t-22.5 9.5t-9.5 22.5h-64q0 -13 -9.5 -22.5t-22.5 -9.5t-22.5 9.5t-9.5 22.5h-64q0 -13 -9.5 -22.5
t-22.5 -9.5q-23 0 -29 25zM192 505q28 -25 64 -25t64 25q28 -25 64 -25t64 25q28 -25 64 -25t64 25q28 -25 64 -25t64 25q28 -25 64 -25t64 25v-377h-64v288h-192v-288h-384v377zM256 416v-224h256v224h-256zM320 352h128v-96h-128v96z" />
    <glyph glyph-name="store-solid" unicode="&#xee04;" 
d="M128 832v-117l-96 -128v-11q0 -39 28.5 -67.5t67.5 -28.5v-416h768v416q39 0 67.5 28.5t28.5 67.5v11l-96 128v117h-768zM192 768h640v-32h-640v32zM176 672h672l77 -103q-6 -25 -29 -25q-13 0 -22.5 9.5t-9.5 22.5h-64q0 -13 -9.5 -22.5t-22.5 -9.5t-22.5 9.5t-9.5 22.5
h-64q0 -13 -9.5 -22.5t-22.5 -9.5t-22.5 9.5t-9.5 22.5h-64q0 -13 -9.5 -22.5t-22.5 -9.5t-22.5 9.5t-9.5 22.5h-64q0 -13 -9.5 -22.5t-22.5 -9.5t-22.5 9.5t-9.5 22.5h-64q0 -13 -9.5 -22.5t-22.5 -9.5t-22.5 9.5t-9.5 22.5h-64q0 -13 -9.5 -22.5t-22.5 -9.5q-23 0 -29 25z
M192 505q28 -25 64 -25t64 25q28 -25 64 -25t64 25q28 -25 64 -25t64 25q28 -25 64 -25t64 25q28 -25 64 -25t64 25v-217h-640v217zM192 224h640v-96h-640v96z" />
    <glyph glyph-name="strava" unicode="&#xee05;" 
d="M454 896l-265 -512h156l109 204l108 -204h155zM717 384l-77 -153l-78 153h-118l196 -384l195 384h-118z" />
    <glyph glyph-name="stream-solid" unicode="&#xee06;" 
d="M160 800v-192h608v192h-608zM224 736h480v-64h-480v64zM288 544v-192h608v192h-608zM352 480h480v-64h-480v64zM160 288v-192h608v192h-608zM224 224h480v-64h-480v64z" />
    <glyph glyph-name="street-view-solid" unicode="&#xee07;" 
d="M512 832q-53 0 -90.5 -37.5t-37.5 -90.5t39 -91q-71 -48 -71 -133v-148l64 -32v-140h192v140l64 32v148q0 85 -71 133q39 38 39 91t-37.5 90.5t-90.5 37.5zM512 768q27 0 45.5 -18.5t18.5 -45.5t-18.5 -45.5t-45.5 -18.5t-45.5 18.5t-18.5 45.5t18.5 45.5t45.5 18.5z
M512 576q40 0 68 -28t28 -68v-108l-64 -32v-116h-64v116l-64 32v108q0 40 28 68t68 28zM288 356q-160 -45 -160 -132q0 -50 57 -87.5t142.5 -55t184.5 -17.5t184.5 17.5t142.5 55t57 87.5q0 87 -160 132v-67q45 -14 70.5 -32t25.5 -33t-23.5 -31.5t-64 -31t-102 -24
t-130.5 -9.5t-130.5 9.5t-102 24t-64 31t-23.5 31.5t25.5 33t70.5 32v67z" />
    <glyph glyph-name="strikethrough-solid" unicode="&#xee08;" 
d="M224 768v-64h256v-256h-160v-64h160v-256h64v256h160v64h-160v256h256v64h-576z" />
    <glyph glyph-name="stripe-s" unicode="&#xee09;" 
d="M528 832q-138 0 -221 -69t-83 -185q0 -32 8.5 -59.5t20.5 -47t33 -38t37.5 -29.5t44 -23t42.5 -17l42 -14q21 -7 32.5 -11t28 -11t24 -13t7.5 -12q0 -15 -49 -15q-45 0 -108 17t-117 44l-46 23v-250l20 -8q118 -50 241 -50q148 0 231.5 64.5t83.5 178.5q0 35 -8.5 64.5
t-21 50.5t-34 40.5t-38.5 30.5t-45.5 23.5t-44 18t-42.5 13.5q-86 28 -86 42q0 5 1.5 8t10.5 6.5t27 3.5q45 0 101 -16.5t100 -43.5l48 -28v262l-20 8q-52 21 -108.5 31.5t-111.5 10.5zM528 768q89 0 176 -30v-110q-46 21 -95 32.5t-90 11.5q-32 0 -54.5 -9t-32 -23.5
t-13 -26t-3.5 -23.5q0 -10 2.5 -19t6 -16t10.5 -14t13 -12t16.5 -10.5t18 -8.5t20.5 -8t20.5 -7.5l22.5 -7.5q39 -12 63.5 -21.5t51 -25t41.5 -32.5t24.5 -42.5t9.5 -58.5q0 -46 -19.5 -80.5t-46.5 -52.5t-64.5 -29t-65 -14t-55.5 -3q-98 0 -197 37v106q117 -47 207 -47
q35 0 59 8t34.5 21t15 24.5t4.5 25.5q0 18 -8.5 33t-18.5 25t-31.5 20t-35.5 15t-42 14q-37 13 -61 22.5t-50 24t-40 30.5t-23.5 39t-9.5 52q0 88 64.5 139t175.5 51z" />
    <glyph glyph-name="stripe" unicode="&#xee0a;" 
d="M160 768q-39 0 -67.5 -28.5t-28.5 -67.5v-448q0 -39 28.5 -67.5t67.5 -28.5h704q39 0 67.5 28.5t28.5 67.5v448q0 39 -28.5 67.5t-67.5 28.5h-704zM160 704h704q14 0 23 -9t9 -23v-448q0 -14 -9 -23t-23 -9h-704q-14 0 -23 9t-9 23v448q0 14 9 23t23 9zM528 594
q-11 0 -19 -8t-8 -19t8 -19t19 -8t19 8t8 19t-8 19t-19 8zM354 570l-44 -7l-6 -39l-16 -3l-6 -36h22v-75q0 -29 15 -41q12 -10 38 -10q12 0 27 4v40q-7 -2 -15 -2q-15 0 -15 17v67h27l6 39h-33v46zM221 527q-27 0 -43 -13t-16 -38q0 -20 11 -31t34 -19q24 -8 24 -18
q0 -11 -16 -11q-24 0 -49 15l-6 -39q25 -14 58 -14q29 0 44 12q18 14 18 41q0 35 -46 51q-24 9 -24 16q0 10 13 10q18 0 43 -12l6 39q-23 11 -51 11zM663 527q-22 0 -41 -20l-2 17h-46v-222l52 9v51q9 -3 23 -3q29 0 46 19q21 23 21 69q0 43 -15 62q-14 18 -38 18zM798 527
q-33 0 -52 -23t-19 -62q0 -45 21 -65q19 -18 56 -18q35 0 55 13l-6 36q-20 -11 -44 -11q-14 0 -22 7q-8 6 -9 22h85q1 10 1 18q0 39 -17 61t-49 22zM480 526q-24 0 -31 -22l-3 20h-45v-162h52v105q9 11 28 11q3 0 9 -1v48q-4 1 -10 1zM502 524v-162h52v162h-52zM797 492
q18 0 19 -34h-38q2 34 19 34zM645 487q20 0 20 -41q0 -25 -7 -37q-6 -12 -18 -12q-8 0 -14 3v77q10 10 19 10z" />
    <glyph glyph-name="stroopwafel-solid" unicode="&#xee0b;" 
d="M512 864q-172 0 -294 -122t-122 -294t122 -294t294 -122t294 122t122 294t-122 294t-294 122zM512 800q21 0 47 -4l-47 -47l-47 47q8 2 15.5 2.5t15.5 1t16 0.5zM392 779l75 -75l-83 -83l-97 97q47 39 105 61zM632 779q58 -22 105 -61l-97 -97l-83 83zM242 673l97 -97
l-83 -83l-75 75q22 58 61 105zM782 673q39 -47 61 -105l-75 -75l-83 83zM512 659l83 -83l-83 -83l-83 83zM384 531l83 -83l-83 -83l-83 83zM640 531l83 -83l-83 -83l-83 83zM164 495l47 -47l-47 -47q-4 26 -4 47t4 47zM860 495q2 -12 3 -24t1 -23q0 -21 -4 -47l-47 47z
M256 403l83 -83l-97 -97q-39 47 -61 105zM512 403l83 -83l-83 -83l-83 83zM768 403l75 -75q-22 -58 -61 -105l-97 97zM384 275l83 -83l-75 -75q-58 22 -105 61zM640 275l97 -97q-47 -39 -105 -61l-75 75zM512 147l47 -47q-12 -2 -24 -3t-23 -1t-23 1t-24 3z" />
    <glyph glyph-name="studiovinari" unicode="&#xee0c;" 
d="M115 864l165 -176l-184 30l266 -200l-133 -17l283 -85l-32 -32l210 39l-24 -111l-92 -84l-144 -73l-33 21l-11 -9l-34 -120l10 2l38 46l90 60l151 42l-109 -63q-29 1 -33 1q-1 0 -9 -25.5t-15 -51.5l-7 -26l15 7l13 19l29 40l128 61l91 110l65 127l41 72v46l-7 45l-17 39
l17 33l21 12l-14 19l12 10l-19 7l-48 40l-61 -17l-7 -61l34 -27l-19 -14l-176 156l70 -90l-316 198l74 -137l80 -29l-30 62l233 -161l-202 121l51 -62z" />
    <glyph glyph-name="stumbleupon-circle" unicode="&#xee0d;" 
d="M512 832q-158 0 -271 -113t-113 -271t113 -271t271 -113t271 113t113 271t-113 271t-271 113zM512 608q-14 0 -23 -9t-9 -23v-192q0 -41 -27.5 -68.5t-68.5 -27.5t-68.5 27.5t-27.5 68.5v64h64v-64q0 -14 9 -23t23 -9t23 9t9 23v192q0 41 27.5 68.5t68.5 27.5t68.5 -27.5
t27.5 -68.5v-32q0 -14 -9 -23t-23 -9t-23 9t-9 23v32q0 14 -9 23t-23 9zM736 384q0 -41 -27.5 -68.5t-68.5 -27.5t-68.5 27.5t-27.5 68.5v74q15 -10 32 -10t32 10v-74q0 -14 9 -23t23 -9t23 9t9 23v64h64v-64z" />
    <glyph glyph-name="stumbleupon" unicode="&#xee0e;" 
d="M512 832q-93 0 -158.5 -65.5t-65.5 -158.5v-304q0 -20 -14 -34t-34 -14t-34 14t-14 34v144h-160v-144q0 -86 61 -147t147 -61t147 61t61 147v304q0 26 19 45t45 19t45 -19t19 -45v-62l60 -28l100 30v60q0 93 -65.5 158.5t-158.5 65.5zM832 448v-144q0 -20 -14 -34
t-34 -14t-34 14t-14 34v144l-107 -32l-53 25v-137q0 -86 61 -147t147 -61t147 61t61 147v144h-160z" />
    <glyph glyph-name="subscript-solid" unicode="&#xee0f;" 
d="M133 704l32 -49l133 -207l-133 -207l-32 -49h204l10 15l53 82l53 -82l10 -15h204l-32 49l-133 207l133 207l32 49h-204l-10 -15l-53 -82l-53 82l-10 15h-204zM250 640h53l70 -110l27 -42l27 42l70 110h53l-124 -192l11 -17l113 -175h-53l-70 110l-27 42l-27 -42l-70 -110
h-53l124 192l-11 17zM799 352q-39 0 -67 -28t-28 -68l64 1q0 13 9 22t22 9h2q13 0 22 -9t9 -22q0 -16 -13 -25l-68 -47q-47 -32 -47 -89v-32h192v64h-111q1 0 1 2t1 2l68 47q41 28 41 78q0 39 -28 67t-67 28h-2z" />
    <glyph glyph-name="subway-solid" unicode="&#xee10;" 
d="M320 832q-66 0 -113 -47t-47 -113v-384q0 -57 31 -104.5t82 -70.5l-81 -81h75l65 65q10 -1 20 -1h320q10 0 20 1l65 -65h75l-81 81q51 23 82 70.5t31 104.5v384q0 66 -47 113t-113 47h-384zM320 768h384q31 0 56 -18t35 -46h-566q10 28 35 46t56 18zM224 640h256v-192
h-256v192zM544 640h256v-192h-256v192zM224 384h576v-96q0 -53 -37.5 -90.5t-90.5 -37.5h-320q-53 0 -90.5 37.5t-37.5 90.5v96zM336 320q-20 0 -34 -14t-14 -34t14 -34t34 -14t34 14t14 34t-14 34t-34 14zM688 320q-20 0 -34 -14t-14 -34t14 -34t34 -14t34 14t14 34t-14 34
t-34 14z" />
    <glyph glyph-name="suitcase-rolling-solid" unicode="&#xee11;" 
d="M448 864q-40 0 -68 -28t-28 -68v-96h64v96q0 13 9.5 22.5t22.5 9.5h128q13 0 22.5 -9.5t9.5 -22.5v-96h64v96q0 40 -28 68t-68 28h-128zM224 608v-480h64v-64h64v64h320v-64h64v64h64v480h-576zM288 544h448v-352h-448v352zM352 448v-64h320v64h-320zM352 320v-64h320v64
h-320z" />
    <glyph glyph-name="suitcase-solid" unicode="&#xee12;" 
d="M448 864q-26 0 -45 -19t-19 -45v-32h-96v32h-64v-32h-64q-26 0 -45 -19t-19 -45v-512q0 -26 19 -45t45 -19h704q26 0 45 19t19 45v512q0 26 -19 45t-45 19h-64v32h-64v-32h-96v32q0 26 -19 45t-45 19h-128zM448 800h128v-32h-128v32zM160 704h704v-512h-64v480h-64v-480
h-448v480h-64v-480h-64v512z" />
    <glyph glyph-name="sun-solid" unicode="&#xee13;" 
d="M480 864v-160h64v160h-64zM240 765l-45 -45l113 -114l46 46zM784 765l-114 -113l46 -46l113 114zM512 672q-93 0 -158.5 -65.5t-65.5 -158.5t65.5 -158.5t158.5 -65.5t158.5 65.5t65.5 158.5t-65.5 158.5t-158.5 65.5zM512 608q67 0 113.5 -46.5t46.5 -113.5
t-46.5 -113.5t-113.5 -46.5t-113.5 46.5t-46.5 113.5t46.5 113.5t113.5 46.5zM96 480v-64h160v64h-160zM768 480v-64h160v64h-160zM308 290l-113 -114l45 -45l114 113zM716 290l-46 -46l114 -113l45 45zM480 192v-160h64v160h-64z" />
    <glyph glyph-name="sun" unicode="&#xee14;" 
d="M480 864v-160h64v160h-64zM240 765l-45 -45l113 -114l46 46zM784 765l-114 -113l46 -46l113 114zM512 672q-93 0 -158.5 -65.5t-65.5 -158.5t65.5 -158.5t158.5 -65.5t158.5 65.5t65.5 158.5t-65.5 158.5t-158.5 65.5zM512 608q67 0 113.5 -46.5t46.5 -113.5
t-46.5 -113.5t-113.5 -46.5t-113.5 46.5t-46.5 113.5t46.5 113.5t113.5 46.5zM96 480v-64h160v64h-160zM768 480v-64h160v64h-160zM308 290l-113 -114l45 -45l114 113zM716 290l-46 -46l114 -113l45 45zM480 192v-160h64v160h-64z" />
    <glyph glyph-name="superpowers" unicode="&#xee15;" 
d="M928 864l-480 -70q-81 -15 -146.5 -64t-103.5 -123t-38 -159q0 -71 27 -135.5t76 -113.5l-167 -167l480 70q81 15 146.5 64t103.5 123t38 159q0 48 -12.5 93.5t-35.5 84.5t-55 71zM512 736q119 0 203.5 -84.5t84.5 -203.5t-84.5 -203.5t-203.5 -84.5t-203.5 84.5
t-84.5 203.5t84.5 203.5t203.5 84.5z" />
    <glyph glyph-name="superscript-solid" unicode="&#xee16;" 
d="M799 864q-39 0 -67 -28t-28 -68l64 1q0 13 9 22t22 9h2q13 0 22 -9t9 -22q0 -16 -13 -25l-68 -47q-47 -32 -47 -89v-32h192v64h-111q1 0 1 2t1 2l68 47q41 28 41 78q0 39 -28 67t-67 28h-2zM133 704l32 -49l133 -207l-133 -207l-32 -49h204l10 15l53 82l53 -82l10 -15
h204l-32 49l-133 207l133 207l32 49h-204l-10 -15l-53 -82l-53 82l-10 15h-204zM250 640h53l70 -110l27 -42l27 42l70 110h53l-124 -192l11 -17l113 -175h-53l-70 110l-27 42l-27 -42l-70 -110h-53l124 192l-11 17z" />
    <glyph glyph-name="supple" unicode="&#xee17;" 
d="M390 672q-78 0 -149.5 -15t-123 -39.5t-82 -58.5t-30.5 -72q0 -45 41.5 -84t113.5 -64q-79 53 -79 124q-1 55 50.5 101.5t140.5 73.5t194 27q13 0 37 -1q-54 8 -113 8zM864 556q79 -53 79 -124q0 -54 -51.5 -100.5t-140 -73.5t-193.5 -27q-20 0 -37 1q55 -8 112 -8
q105 0 194 24.5t140.5 67t51.5 92.5q0 30 -19 58t-53.5 50.5t-82.5 39.5zM251 512q-18 0 -29.5 -10t-11.5 -25q0 -10 6 -18t14.5 -12.5t17 -8.5t14.5 -8.5t6 -9.5q0 -15 -18 -15q-7 0 -14.5 4t-11.5 7l-4 4l-12 -16q15 -19 42 -19q18 0 29.5 10.5t11.5 25.5q0 14 -9.5 23
t-20 13t-19.5 9t-9 12q0 13 18 13q16 0 16 -9v-6h20v12q0 11 -11.5 17.5t-24.5 6.5zM721 510v-19h11v-92q0 -12 12 -12h55q12 0 12 12v19h-20v-8q0 -4 -4 -4h-28q-4 0 -4 4v29h40v19h-40v33h27q2 0 3 -1t1 -3v-7h21v18q0 4 -1.5 7t-4 4t-6.5 1h-74zM630 510v-19h7q4 0 4 -4
v-88q0 -12 11 -12h55q11 0 11 12v19h-20v-8q-2 -3 -4 -4h-27q-3 0 -3 4v88q0 12 -12 12h-22zM307 510v-79q0 -21 13.5 -33.5t35.5 -12.5t35 12.5t13 33.5v79h-22v-78q0 -12 -7 -19t-19 -7t-19 7t-7 18v79h-23zM420 510v-19h11v-104h23v42h22q17 0 28 11.5t11 29.5t-11 29
t-28 11h-56zM525 510v-19h11v-104h23v42h22q9 0 16 3t12 8.5t8 13t3 16.5t-3 16.5t-8 12.5t-12 8t-16 3h-56zM813 510v-2h4v-8h2v8h4v2h-10zM825 510v-10h2v8l3 -8h2l4 8v-8h2v10h-3l-4 -7l-3 7h-3zM454 491h18q20 0 20 -21t-20 -21h-18v42zM558 491h19q20 0 20 -21
q0 -5 -1.5 -9t-4 -6.5t-6.5 -4t-8 -1.5h-19v42z" />
    <glyph glyph-name="surprise-solid" unicode="&#xee18;" 
d="M512 832q-159 0 -271.5 -112.5t-112.5 -271.5t112.5 -271.5t271.5 -112.5t271.5 112.5t112.5 271.5t-112.5 271.5t-271.5 112.5zM512 768q133 0 226.5 -93.5t93.5 -226.5t-93.5 -226.5t-226.5 -93.5t-226.5 93.5t-93.5 226.5t93.5 226.5t226.5 93.5zM368 608
q-20 0 -34 -23.5t-14 -56.5t14 -56.5t34 -23.5t34 23.5t14 56.5t-14 56.5t-34 23.5zM656 608q-20 0 -34 -23.5t-14 -56.5t14 -56.5t34 -23.5t34 23.5t14 56.5t-14 56.5t-34 23.5zM512 416q-54 0 -91 -38t-37 -90q0 -56 37 -79q27 -17 91 -17t91 17q37 23 37 79q0 52 -37 90
t-91 38zM512 352q30 0 47 -17.5t17 -46.5q0 -21 -6 -25q-12 -7 -58 -7t-58 7q-6 4 -6 25q0 29 17 46.5t47 17.5z" />
    <glyph glyph-name="surprise" unicode="&#xee19;" 
d="M512 832q-159 0 -271.5 -112.5t-112.5 -271.5t112.5 -271.5t271.5 -112.5t271.5 112.5t112.5 271.5t-112.5 271.5t-271.5 112.5zM512 768q133 0 226.5 -93.5t93.5 -226.5t-93.5 -226.5t-226.5 -93.5t-226.5 93.5t-93.5 226.5t93.5 226.5t226.5 93.5zM368 608
q-20 0 -34 -23.5t-14 -56.5t14 -56.5t34 -23.5t34 23.5t14 56.5t-14 56.5t-34 23.5zM656 608q-20 0 -34 -23.5t-14 -56.5t14 -56.5t34 -23.5t34 23.5t14 56.5t-14 56.5t-34 23.5zM512 416q-54 0 -91 -38t-37 -90q0 -56 37 -79q27 -17 91 -17t91 17q37 23 37 79q0 52 -37 90
t-91 38zM512 352q30 0 47 -17.5t17 -46.5q0 -21 -6 -25q-12 -7 -58 -7t-58 7q-6 4 -6 25q0 29 17 46.5t47 17.5z" />
    <glyph glyph-name="suse" unicode="&#xee1a;" 
d="M547 736q-74 0 -153.5 -35t-134.5 -95.5t-55 -125.5q0 -54 38.5 -91t93.5 -37q41 0 69 26t28 60q0 35 -23 62.5t-64 27.5q-10 0 -22.5 -4t-26 -18t-13.5 -36q0 -24 15 -38t33 -14q35 0 35 20q0 12 -17 18q-4 0 -10.5 -2t-7.5 -2q-4 0 -9 4.5t-5 13.5q0 20 32 20
q19 0 31.5 -15.5t12.5 -32.5q0 -6 -1.5 -12t-6.5 -15.5t-17 -15t-30 -5.5q-32 0 -57.5 21.5t-25.5 57.5q0 37 27 60t60 23q49 0 81 -28t40 -56l7 -27l48 -24q-3 17 -3 31q0 63 62 63q28 0 47.5 -11t41.5 -38l22 -28l62 -27q-31 41 -31 79q0 13 4.5 20t14.5 8.5t19.5 0.5
t27.5 -2.5t31 -1.5q54 0 96 13.5t42 44.5q-2 0 -24 -10t-42 -10q-10 3 -32 12.5t-40 17.5t-21 8l-14 31q80 -49 118 -49q14 0 28.5 6.5t21.5 12.5l8 6q-19 70 -40 85t-124 36q-21 5 -33 7v-28q-4 6 -28.5 14t-69 15t-92.5 9h-24zM882 684q18 0 31.5 -13.5t13.5 -31.5
t-13.5 -31.5t-31.5 -13.5t-31.5 13.5t-13.5 31.5q0 19 12.5 32t32.5 13zM882 662q-13 0 -22 -9t-9 -22t9 -22t22 -9t22 9t9 22t-9 22t-22 9zM889 649q14 0 14 -11q-5 -10 -14 -10q-14 0 -14 10q0 3 4.5 7t9.5 4zM117 354q-21 0 -36.5 -15.5t-15.5 -36.5v-14
q0 -20 13.5 -32.5t34.5 -12.5h52q14 0 14 -14v-14q0 -5 -4.5 -9t-9.5 -4h-97v-25q0 -17 18 -17h86q21 0 36.5 15.5t15.5 36.5v21q0 41 -48 41h-49q-14 0 -14 11v10q0 5 5 9.5t13 4.5h83v27q0 8 -4.5 13t-9.5 5h-83zM517 354q-21 0 -36.5 -15.5t-15.5 -36.5v-14
q0 -20 14 -32.5t35 -12.5h52q13 0 13 -14v-14q0 -5 -4 -9t-9 -4h-101v-25q0 -17 18 -17h86q21 0 36.5 15.5t15.5 36.5v21q0 41 -48 41h-52q-14 0 -14 11v10q0 14 17 14h87v27q0 18 -18 18h-76zM711 350q-21 0 -36.5 -15.5t-15.5 -36.5v-86q0 -21 15.5 -36.5t36.5 -15.5h73
q17 0 17 17v25h-83q-14 0 -14 13v25h100q11 0 19.5 7t8.5 17v34q0 21 -15.5 36.5t-36.5 15.5h-69zM718 312h52q5 0 9.5 -4.5t4.5 -9.5v-20h-83q2 0 2.5 5t0.5 10v5q0 5 4.5 9.5t9.5 4.5zM398 305v-3q-17 0 -17 -17v-70q0 -17 -18 -17h-45q-17 0 -17 17v70q0 7 -6.5 12
t-14.5 5h-7q-17 0 -17 -17v-73q0 -52 59 -52h7q17 0 45 14l14 7q3 -1 6 -4l11 -14h14q7 0 12 6t5 12v107q0 7 -6.5 12t-14.5 5h-10z" />
    <glyph glyph-name="swatchbook-solid" unicode="&#xee1b;" 
d="M160 800v-576q0 -53 37.5 -90.5t90.5 -37.5t90.5 37.5t37.5 90.5v576h-256zM224 736h128v-128h-128v128zM605 722l-141 -141v-90l141 140l90 -90l-231 -232v-85v-2.5v-2.5l322 322zM224 544h128v-128h-128v128zM224 352h128v-128q0 -26 -19 -45t-45 -19t-45 19t-19 45
v128zM665 352l-64 -64h199v-128h-327l-61 -60q0 -1 -2 -2l-2 -2h456v256h-199z" />
    <glyph glyph-name="swift" unicode="&#xee1c;" 
d="M286 800q-52 0 -89 -37t-37 -89v-452q0 -52 37 -89t89 -37h452q52 0 89 37t37 89v452q0 52 -37 89t-89 37h-452zM286 736h452q26 0 44 -18t18 -44v-452q0 -26 -18 -44t-44 -18h-452q-26 0 -44 18t-18 44v452q0 26 18 44t44 18zM564 656q3 -4 8.5 -11.5t17 -31t18 -47.5
t7 -58.5t-11.5 -66.5q-144 102 -217 176q91 -131 123 -158q-54 29 -180 136q16 -21 42 -53.5t83.5 -95t87.5 -79.5q-4 -3 -12 -7t-34 -11t-53.5 -6.5t-70 13t-84.5 40.5q3 -6 9.5 -15.5t29 -33.5t48.5 -42.5t69 -33.5t90 -15q42 0 81.5 19.5t53.5 19.5q17 0 32.5 -9.5
t22.5 -19.5l7 -10q9 29 1.5 55t-21.5 45l-14 18q3 6 6 17t3.5 43.5t-10 64.5t-44 76t-88.5 81z" />
    <glyph glyph-name="swimmer-solid" unicode="&#xee1d;" 
d="M752 608q-46 0 -79 -33t-33 -79t33 -79t79 -33t79 33t33 79t-33 79t-79 33zM439 607q-18 -1 -33 -12l-169 -121l38 -52l168 121l73 -84l-237 -201q23 -2 41 -2q30 0 63 6l174 149l65 -75q41 11 73 14l-204 235q-21 24 -52 22zM752 544q20 0 34 -14t14 -34t-14 -34
t-34 -14t-34 14t-14 34t14 34t34 14zM736 320q-36 0 -78.5 -9t-63.5 -16t-71 -25q-128 -46 -203 -46q-78 0 -144.5 22t-93.5 44l-28 21l-44 -46q5 -4 13.5 -11t38.5 -25.5t63.5 -32t86.5 -25t108 -11.5q85 0 224 50q128 46 192 46q36 0 73 -9t65 -22t50.5 -26.5t34.5 -22.5
l12 -9l42 50q-5 4 -14 11t-38.5 25t-60 31.5t-75.5 24.5t-89 11z" />
    <glyph glyph-name="swimming-pool-solid" unicode="&#xee1e;" 
d="M384 832q-40 0 -68 -28t-28 -68v-404l32 23l32 -23v404q0 13 9.5 22.5t22.5 9.5h32v64h-32zM768 832q-40 0 -68 -28t-28 -68v-32h-288v-64h288v-64h-288v-64h288v-64h-288v-64h288v-52l32 23l32 -23v404q0 13 9.5 22.5t22.5 9.5h32v64h-32zM320 297l-20 -16
q-32 -25 -75 -25q-19 0 -38.5 6t-28.5 12l-10 7l-40 -50q50 -39 117 -39q52 0 95 27q44 -27 97 -27q52 0 95 27q44 -27 97 -27q52 0 95 27q44 -27 97 -27q30 0 59 10t42 20l14 9l-40 50q-32 -25 -75 -25q-19 0 -38.5 6t-28.5 12l-10 7l-20 16l-20 -16q-32 -25 -75 -25
q-19 0 -38.5 6t-28.5 12l-10 7l-20 16l-20 -16q-32 -25 -75 -25q-19 0 -38.5 6t-28.5 12l-10 7zM320 169l-20 -16q-32 -25 -75 -25q-19 0 -38.5 6t-28.5 12l-10 7l-40 -50q50 -39 117 -39q52 0 95 27q44 -27 97 -27q52 0 95 27q44 -27 97 -27q52 0 95 27q44 -27 97 -27
q30 0 59 10t42 20l14 9l-40 50q-32 -25 -75 -25q-19 0 -38.5 6t-28.5 12l-10 7l-20 16l-20 -16q-32 -25 -75 -25q-19 0 -38.5 6t-28.5 12l-10 7l-20 16l-20 -16q-32 -25 -75 -25q-19 0 -38.5 6t-28.5 12l-10 7z" />
    <glyph glyph-name="symfony" unicode="&#xee1f;" 
d="M512 864q-172 0 -294 -122t-122 -294t122 -294t294 -122t294 122t122 294t-122 294t-294 122zM512 800q146 0 249 -103t103 -249t-103 -249t-249 -103t-249 103t-103 249t103 249t249 103zM649 638q-7 -1 -10.5 -1t-21.5 -6.5t-31.5 -18.5t-32 -39.5t-31.5 -64.5
l-9.5 8.5t-17 15t-21.5 14t-26.5 10t-29 -1t-32.5 -15.5q-12 -9 -19 -24t-4 -35.5t19 -38.5l7.5 -7.5t6.5 -7t5.5 -6t4.5 -5.5t3 -5.5t2 -6v-5.5t-1 -6q-8 -27 -40 -21q-22 4 -23 16q-1 2 0 3l2 4l2.5 5l3.5 7q4 15 -5 25t-21.5 8t-16.5 -16q-5 -16 6 -34.5t41 -27.5
q38 -12 68 4t35 45q4 27 -26 62l-16 18q-7 7 -8 17.5t5 20.5q14 16 40 9q12 -3 22 -10t21.5 -17.5t17.5 -15.5q-12 -41 -22 -101q-13 -64 -24.5 -96t-31.5 -50q-15 -10 -28 -11q-9 0 -9 7q0 3 7 9q15 7 8 24.5t-27 17.5q-6 -1 -13 -4.5t-12 -11t-4 -17.5q0 -17 14 -27.5
t37 -9.5q48 2 88 50q21 25 35.5 58.5t20 57.5t13.5 68l3 15q30 -3 52.5 3.5t32.5 17.5t10 23q1 14 -8 20t-19 1.5t-12 -14.5q-1 -5 2.5 -11t4.5 -10t-5 -10q-20 -13 -56 -7q1 2 1 6q4 23 6.5 34t7 30t9.5 28.5t12 20.5t16 16t21 5q15 1 16 -8q0 -3 -4.5 -10t-3.5 -14
q0 -9 6.5 -15t17.5 -5q13 0 18.5 9.5t5.5 18.5q-1 17 -16.5 26.5t-38.5 9.5z" />
    <glyph glyph-name="synagogue-solid" unicode="&#xee20;" 
d="M512 811l-21 -19l-247 -216h-116v-480h320v128q0 27 18.5 45.5t45.5 18.5t45.5 -18.5t18.5 -45.5v-128h320v480h-116l-247 216zM192 736q-6 -10 -23.5 -21.5t-29 -26t-11.5 -37.5q0 -13 5 -24t11 -15l5 -4h86q21 13 21 43q0 25 -10.5 39t-28.5 25.5t-25 20.5zM832 736
q-3 -5 -33.5 -34t-30.5 -51q0 -13 5 -24t11 -15l5 -4h86q21 13 21 43q0 18 -10.5 32t-28.5 29t-25 24zM512 726l244 -214h76v-352h-192v64q0 53 -37.5 90.5t-90.5 37.5t-90.5 -37.5t-37.5 -90.5v-64h-192v352h76l9 8zM512 593l-28 -48h-55l27 -48l-27 -48h55l28 -49l28 49
h55l-27 48l27 48h-55z" />
    <glyph glyph-name="sync-alt-solid" unicode="&#xee21;" 
d="M512 832q-121 0 -217 -67.5t-139 -176.5l59 -24q36 91 116 147.5t181 56.5q76 0 143 -34.5t111 -93.5h-126v-64h224v224h-64v-99q-54 61 -129 96t-159 35zM809 332q-36 -91 -116 -147.5t-181 -56.5q-77 0 -143.5 34.5t-111.5 93.5h127v64h-224v-224h64v99
q54 -61 128.5 -96t159.5 -35q121 0 217 67.5t139 176.5z" />
    <glyph glyph-name="sync-solid" unicode="&#xee22;" 
d="M512 832q-121 0 -217 -67.5t-139 -176.5l59 -24q36 91 116 147.5t181 56.5q76 0 143 -34.5t111 -93.5h-126v-64h224v224h-64v-99q-54 61 -129 96t-159 35zM809 332q-36 -91 -116 -147.5t-181 -56.5q-77 0 -143.5 34.5t-111.5 93.5h127v64h-224v-224h64v99
q54 -61 128.5 -96t159.5 -35q121 0 217 67.5t139 176.5z" />
    <glyph glyph-name="syringe-solid" unicode="&#xee23;" 
d="M743 839l-46 -46l12 -12l-73 -73l45 -46l73 74l46 -46l-74 -73l46 -45l73 73l12 -12l46 46zM567 727l-46 -46l21 -21l-329 -330l2 -15l11 -102l1 -11l3 -2l-104 -104h91l65 65l97 -10l15 -2l11 11l319 318l21 -21l46 46zM588 614l90 -90l-307 -308l-76 9l-6 6l-9 76z" />
    <glyph glyph-name="table-solid" unicode="&#xee24;" 
d="M160 800v-704h704v704h-704zM224 736h160v-160h-160v160zM448 736h128v-160h-128v160zM640 736h160v-160h-160v160zM224 512h160v-128h-160v128zM448 512h128v-128h-128v128zM640 512h160v-128h-160v128zM224 320h160v-160h-160v160zM448 320h128v-160h-128v160zM640 320
h160v-160h-160v160z" />
    <glyph glyph-name="table-tennis-solid" unicode="&#xee25;" 
d="M224 832q-39 0 -67.5 -28.5t-28.5 -67.5t28.5 -67.5t67.5 -28.5t67.5 28.5t28.5 67.5t-28.5 67.5t-67.5 28.5zM606 803q-14 0 -30 -2q-117 -14 -209 -106q-70 -69 -83 -201q-1 -2 -1 -4q-1 -3 -2 -5v-6q0 -3 1 -6q1 -4 2 -6q3 -51 15 -86q4 -21 4 -30q0 -1 -4 -22
q-29 -28 -65 -57q-41 -32 -56 -46q-27 -28 -19 -66q7 -31 35 -59t59 -35q39 -9 67 19q4 4 45 56q33 42 57 66q-1 -1 2 0q10 3 18 3q12 0 25 -2q1 0 3 -0.5t3 -0.5q35 -13 86 -16l1 -1q3 -1 7 -1q2 -1 3 -1h6q3 0 6 1q1 0 1.5 0.5t2.5 0.5q129 11 202 84q92 92 106 209
q16 132 -85 233q-88 88 -203 87zM224 768q14 0 23 -9t9 -23t-9 -23t-23 -9t-23 9t-9 23t9 23t23 9zM606 739q88 2 158 -68q78 -78 66 -181q-11 -95 -87 -171q-55 -55 -159 -64l-236 236q7 63 22 96.5t43 61.5q77 77 170 88q17 2 23 2zM363 384l114 -113q-19 3 -35 3
q-43 0 -65 -22q-29 -29 -62 -71q-37 -47 -41 -51q-3 -3 -7 -2q-10 2 -27 19q-16 16 -18 27q-1 5 1 7q8 8 50 41q47 37 72 62q23 23 22 68q0 11 -4 32z" />
    <glyph glyph-name="tablet-alt-solid" unicode="&#xee26;" 
d="M160 768q-39 0 -67.5 -28.5t-28.5 -67.5v-448q0 -39 28.5 -67.5t67.5 -28.5h704q39 0 67.5 28.5t28.5 67.5v448q0 39 -28.5 67.5t-67.5 28.5h-704zM160 704h704q13 0 22.5 -9.5t9.5 -22.5v-448q0 -13 -9.5 -22.5t-22.5 -9.5h-704q-13 0 -22.5 9.5t-9.5 22.5v448
q0 13 9.5 22.5t22.5 9.5zM192 480q-13 0 -22.5 -9.5t-9.5 -22.5t9.5 -22.5t22.5 -9.5t22.5 9.5t9.5 22.5t-9.5 22.5t-22.5 9.5z" />
    <glyph glyph-name="tablet-solid" unicode="&#xee27;" 
d="M160 768q-39 0 -67.5 -28.5t-28.5 -67.5v-448q0 -39 28.5 -67.5t67.5 -28.5h704q39 0 67.5 28.5t28.5 67.5v448q0 39 -28.5 67.5t-67.5 28.5h-704zM160 704h704q13 0 22.5 -9.5t9.5 -22.5v-448q0 -13 -9.5 -22.5t-22.5 -9.5h-704q-13 0 -22.5 9.5t-9.5 22.5v448
q0 13 9.5 22.5t22.5 9.5zM192 480q-13 0 -22.5 -9.5t-9.5 -22.5t9.5 -22.5t22.5 -9.5t22.5 9.5t9.5 22.5t-9.5 22.5t-22.5 9.5z" />
    <glyph glyph-name="tablets-solid" unicode="&#xee28;" 
d="M704 864q-93 0 -158.5 -65.5t-65.5 -158.5t65.5 -158.5t158.5 -65.5t158.5 65.5t65.5 158.5t-65.5 158.5t-158.5 65.5zM704 800q66 0 113 -47t47 -113q0 -48 -27 -88l-221 221q10 7 20 11.5t21 8t23 5.5t24 2zM571 728l221 -221q-19 -13 -41.5 -20t-46.5 -7
q-66 0 -113 47t-47 113q0 48 27 88zM320 512q-93 0 -158.5 -65.5t-65.5 -158.5t65.5 -158.5t158.5 -65.5t158.5 65.5t65.5 158.5t-65.5 158.5t-158.5 65.5zM320 448q57 0 101 -36.5t56 -91.5h-314q12 55 56 91.5t101 36.5zM163 256h314q-12 -55 -56 -91.5t-101 -36.5
t-101 36.5t-56 91.5z" />
    <glyph glyph-name="tachometer-alt-solid" unicode="&#xee29;" 
d="M512 768q-159 0 -271.5 -112.5t-112.5 -271.5q0 -138 88 -244l9 -12h574l9 12q88 106 88 244q0 159 -112.5 271.5t-271.5 112.5zM512 704q133 0 226.5 -93.5t93.5 -226.5q0 -105 -66 -192h-508q-66 87 -66 192q0 133 93.5 226.5t226.5 93.5zM512 672q-13 0 -22.5 -9.5
t-9.5 -22.5t9.5 -22.5t22.5 -9.5t22.5 9.5t9.5 22.5t-9.5 22.5t-22.5 9.5zM384 638q-13 0 -22.5 -9.5t-9.5 -22.5t9.5 -22.5t22.5 -9.5t22.5 9.5t9.5 22.5t-9.5 22.5t-22.5 9.5zM640 638q-13 0 -22.5 -9.5t-9.5 -22.5t9.5 -22.5t22.5 -9.5t22.5 9.5t9.5 22.5t-9.5 22.5
t-22.5 9.5zM290 544q-13 0 -22.5 -9.5t-9.5 -22.5t9.5 -22.5t22.5 -9.5t22.5 9.5t9.5 22.5t-9.5 22.5t-22.5 9.5zM725 543l-181 -104q-15 9 -32 9q-27 0 -45.5 -18.5t-18.5 -45.5t18.5 -45.5t45.5 -18.5q26 0 45 18.5t19 45.5l181 103zM256 416q-13 0 -22.5 -9.5t-9.5 -22.5
t9.5 -22.5t22.5 -9.5t22.5 9.5t9.5 22.5t-9.5 22.5t-22.5 9.5zM768 416q-13 0 -22.5 -9.5t-9.5 -22.5t9.5 -22.5t22.5 -9.5t22.5 9.5t9.5 22.5t-9.5 22.5t-22.5 9.5zM290 288q-13 0 -22.5 -9.5t-9.5 -22.5t9.5 -22.5t22.5 -9.5t22.5 9.5t9.5 22.5t-9.5 22.5t-22.5 9.5z
M734 288q-13 0 -22.5 -9.5t-9.5 -22.5t9.5 -22.5t22.5 -9.5t22.5 9.5t9.5 22.5t-9.5 22.5t-22.5 9.5z" />
    <glyph glyph-name="tag-solid" unicode="&#xee2a;" 
d="M512 800l-10 -9l-387 -391l22 -23l304 -304l23 -22l22 22l369 365l9 10v352h-352zM539 736h261v-261l-336 -334l-259 259zM704 672q-13 0 -22.5 -9.5t-9.5 -22.5t9.5 -22.5t22.5 -9.5t22.5 9.5t9.5 22.5t-9.5 22.5t-22.5 9.5z" />
    <glyph glyph-name="tags-solid" unicode="&#xee2b;" 
d="M467 832l-10 -9l-352 -352l-22 -23l22 -23l288 -288l23 -22l23 22l352 352l9 10v333h-333zM494 768h242v-242l-320 -320l-242 242zM832 736v-64h32v-261l-304 -302l-40 40l-45 -45l62 -63l23 -22l22 22l337 333l9 10v352h-96zM640 704q-13 0 -22.5 -9.5t-9.5 -22.5
t9.5 -22.5t22.5 -9.5t22.5 9.5t9.5 22.5t-9.5 22.5t-22.5 9.5z" />
    <glyph glyph-name="tape-solid" unicode="&#xee2c;" 
d="M384 800q-146 0 -249 -103t-103 -249t103 -249t249 -103h608v64h-406q69 49 109.5 124.5t40.5 163.5q0 146 -103 249t-249 103zM384 736q119 0 203.5 -84.5t84.5 -203.5t-84.5 -203.5t-203.5 -84.5t-203.5 84.5t-84.5 203.5t84.5 203.5t203.5 84.5zM384 576
q-53 0 -90.5 -37.5t-37.5 -90.5t37.5 -90.5t90.5 -37.5t90.5 37.5t37.5 90.5t-37.5 90.5t-90.5 37.5zM384 512q26 0 45 -19t19 -45t-19 -45t-45 -19t-45 19t-19 45t19 45t45 19z" />
    <glyph glyph-name="tasks-solid" unicode="&#xee2d;" 
d="M329 791l-105 -106l-41 42l-46 -46l87 -86l151 150zM448 736v-64h448v64h-448zM448 480v-64h448v64h-448zM448 224v-64h448v64h-448z" />
    <glyph glyph-name="taxi-solid" unicode="&#xee2e;" 
d="M416 832l-21 -64h-91q-32 0 -57.5 -19t-34.5 -49l-44 -147l-62 21l-20 -60l63 -21l-20 -68q-1 -5 -1 -9v-256q0 -13 9.5 -22.5t22.5 -9.5h96l11 32h490l11 -32h96q13 0 22.5 9.5t9.5 22.5v256q0 4 -1 9l-20 68l63 21l-20 60l-62 -21l-44 147q-9 30 -34.5 49t-57.5 19h-91
l-21 64h-192zM304 704h416q24 0 31 -23l41 -137h-560l41 137q7 23 31 23zM213 480h598l21 -70v-186h-640v186zM272 448q-20 0 -34 -14t-14 -34t14 -34t34 -14t34 14t14 34t-14 34t-34 14zM752 448q-20 0 -34 -14t-14 -34t14 -34t34 -14t34 14t14 34t-14 34t-34 14zM384 352
l-40 -96h69l14 32h170l14 -32h69l-40 96h-256z" />
    <glyph glyph-name="teamspeak" unicode="&#xee2f;" 
d="M524 832q-62 1 -130 -20q-87 -27 -153 -101q-11 -12 -5 -21q5 -6 -1 -14q-45 -64 -59 -138q-1 -5 -3 -7.5t-7 -4.5q-31 -16 -37 -51l-1 -39v-42q0 -35 21.5 -55t56.5 -19q18 1 18 18v140q0 32 5 59q6 27 15.5 51t22.5 43q26 42 63 72.5t84 47.5t98 17q119 0 203.5 -84.5
t84.5 -203.5v-137q0 -6 1 -10t4 -7.5t8 -4.5q18 -3 35.5 3t29.5 20t15 32q2 12 2.5 27t0 35t-0.5 26q0 22 -10 38t-29 25q-7 4 -9 10q-14 78 -61 140q-4 6 -3 8q2 2 3 4.5t2 4.5t0.5 4.5t-0.5 4t-1.5 4t-2 3l-3 3l-3 3l-3 3t-2.5 3.5q-112 108 -249 110zM332 448
q-16 1 -27 -8.5t-14 -26.5q-11 -50 19 -94q19 -28 58 -30q69 -4 83 1q25 9 30 31q4 20 -43 62q-49 42 -85 59q-11 5 -21 6zM703 384q-25 2 -91 -25q-30 -12 -46.5 -24.5t-19 -23t1.5 -19.5t13 -15t19 -9l73 -11q37 -3 60.5 24.5t22.5 65.5q-2 34 -33 37zM778 288q-4 0 -6 -3
l-0.5 -1l-0.5 -1q-5 -17 -12.5 -34t-27.5 -44.5t-45.5 -49t-69 -39t-96.5 -20.5q-79 -6 -72 -17q9 -13 92 -15q138 -2 192 41q18 15 25.5 22.5t20.5 24t17.5 37t4.5 48.5q-1 13 -5.5 28t-11.5 21q-1 1 -2.5 1.5t-2.5 0.5z" />
    <glyph glyph-name="teeth-open-solid" unicode="&#xee30;" 
d="M320 864q-119 0 -203.5 -84.5t-84.5 -203.5v-32q0 -40 28 -68t68 -28q36 0 64 25q28 -25 64 -25h32q36 0 64 25q28 -25 64 -25h32q36 0 64 25q28 -25 64 -25h32q36 0 64 25q28 -25 64 -25h32q36 0 64 25q28 -25 64 -25q40 0 68 28t28 68v32q0 119 -84.5 203.5
t-203.5 84.5h-384zM320 800h384q26 0 51.5 -6t48 -17.5t42 -27.5t35 -35.5t26.5 -42.5q-1 0 -3.5 0.5t-4 0.5h-3.5q-6 0 -11.5 -0.5t-11 -2t-10.5 -3.5t-10 -4.5t-9 -5.5q-34 48 -92 48q-18 0 -34.5 -5.5t-30.5 -15.5q-15 24 -40.5 38.5t-54.5 14.5q-7 0 -13.5 -1
t-12.5 -2.5t-12 -3.5t-11.5 -5t-11 -6.5t-10.5 -7t-9 -8.5q-33 34 -80 34q-29 0 -54.5 -14.5t-40.5 -38.5q-29 21 -65 21q-28 0 -52 -13t-40 -35q-23 16 -52 16q-1 0 -11 -1q28 58 82.5 93.5t120.5 35.5zM432 672q20 0 34 -14t14 -34v-80q0 -13 -9.5 -22.5t-22.5 -9.5h-32
q-13 0 -22.5 9.5t-9.5 22.5v80q0 20 14 34t34 14zM592 672q20 0 34 -14t14 -34v-80q0 -13 -9.5 -22.5t-22.5 -9.5h-32q-13 0 -22.5 9.5t-9.5 22.5v80q0 20 14 34t34 14zM272 640q20 0 34 -14t14 -34v-48q0 -13 -9.5 -22.5t-22.5 -9.5h-32q-13 0 -22.5 9.5t-9.5 22.5v48
q0 20 14 34t34 14zM752 640q20 0 34 -14t14 -34v-48q0 -13 -9.5 -22.5t-22.5 -9.5h-32q-13 0 -22.5 9.5t-9.5 22.5v48q0 20 14 34t34 14zM128 608q13 0 22.5 -9.5t9.5 -22.5v-32q0 -13 -9.5 -22.5t-22.5 -9.5t-22.5 9.5t-9.5 22.5v32q0 13 9.5 22.5t22.5 9.5zM896 608
q13 0 22.5 -9.5t9.5 -22.5v-32q0 -13 -9.5 -22.5t-22.5 -9.5t-22.5 9.5t-9.5 22.5v32q0 13 9.5 22.5t22.5 9.5zM128 384q-40 0 -68 -28t-28 -68v-32q0 -93 65.5 -158.5t158.5 -65.5h512q93 0 158.5 65.5t65.5 158.5v32q0 40 -28 68t-68 28q-36 0 -64 -25q-28 25 -64 25h-32
q-36 0 -64 -25q-28 25 -64 25h-32q-36 0 -64 -25q-28 25 -64 25h-32q-36 0 -64 -25q-28 25 -64 25h-32q-36 0 -64 -25q-28 25 -64 25zM128 320q13 0 22.5 -9.5t9.5 -22.5t-9.5 -22.5t-22.5 -9.5t-22.5 9.5t-9.5 22.5t9.5 22.5t22.5 9.5zM256 320h32q13 0 22.5 -9.5
t9.5 -22.5v-32q0 -13 -9.5 -22.5t-22.5 -9.5q-26 0 -45 19t-19 45q0 13 9.5 22.5t22.5 9.5zM416 320h32q13 0 22.5 -9.5t9.5 -22.5v-32q0 -13 -9.5 -22.5t-22.5 -9.5h-32q-13 0 -22.5 9.5t-9.5 22.5v32q0 13 9.5 22.5t22.5 9.5zM576 320h32q13 0 22.5 -9.5t9.5 -22.5v-32
q0 -13 -9.5 -22.5t-22.5 -9.5h-32q-13 0 -22.5 9.5t-9.5 22.5v32q0 13 9.5 22.5t22.5 9.5zM736 320h32q13 0 22.5 -9.5t9.5 -22.5q0 -26 -19 -45t-45 -19q-13 0 -22.5 9.5t-9.5 22.5v32q0 13 9.5 22.5t22.5 9.5zM896 320q13 0 22.5 -9.5t9.5 -22.5t-9.5 -22.5t-22.5 -9.5
t-22.5 9.5t-9.5 22.5t9.5 22.5t22.5 9.5zM186 212q39 -52 102 -52q36 0 64 25q28 -25 64 -25h32q36 0 64 25q28 -25 64 -25h32q36 0 64 25q28 -25 64 -25q63 0 102 52q26 -20 58 -20q10 0 20 2q-13 -29 -34.5 -51t-51 -34.5t-62.5 -12.5h-512q-49 0 -89 27t-59 71
q10 -2 20 -2q32 0 58 20z" />
    <glyph glyph-name="teeth-solid" unicode="&#xee31;" 
d="M320 800q-119 0 -203.5 -84.5t-84.5 -203.5v-32q0 -36 25 -64q-25 -28 -25 -64v-32q0 -93 65.5 -158.5t158.5 -65.5h512q93 0 158.5 65.5t65.5 158.5v32q0 36 -25 64q12 13 18.5 29.5t6.5 34.5v32q0 119 -84.5 203.5t-203.5 84.5h-384zM320 736h384q44 0 84 -16.5
t70.5 -45.5t48.5 -67q-1 0 -3.5 0.5t-4 0.5h-3.5q-29 0 -52 -16q-16 22 -40 35t-52 13q-18 0 -34.5 -5.5t-30.5 -15.5q-15 24 -40.5 38.5t-54.5 14.5q-23 0 -43.5 -9t-36.5 -25q-33 34 -80 34q-29 0 -54.5 -14.5t-40.5 -38.5q-29 21 -65 21q-58 0 -92 -48q-11 8 -24.5 12
t-27.5 4q-1 0 -11 -1q28 58 82.5 93.5t120.5 35.5zM432 608q20 0 34 -14t14 -34v-80q0 -13 -9.5 -22.5t-22.5 -9.5h-32q-13 0 -22.5 9.5t-9.5 22.5v80q0 20 14 34t34 14zM592 608q20 0 34 -14t14 -34v-80q0 -13 -9.5 -22.5t-22.5 -9.5h-32q-13 0 -22.5 9.5t-9.5 22.5v80
q0 20 14 34t34 14zM272 576q20 0 34 -14t14 -34v-48q0 -13 -9.5 -22.5t-22.5 -9.5h-32q-13 0 -22.5 9.5t-9.5 22.5v48q0 20 14 34t34 14zM752 576q20 0 34 -14t14 -34v-48q0 -13 -9.5 -22.5t-22.5 -9.5h-32q-13 0 -22.5 9.5t-9.5 22.5v48q0 20 14 34t34 14zM128 544
q13 0 22.5 -9.5t9.5 -22.5v-32q0 -13 -9.5 -22.5t-22.5 -9.5t-22.5 9.5t-9.5 22.5v32q0 13 9.5 22.5t22.5 9.5zM896 544q13 0 22.5 -9.5t9.5 -22.5v-32q0 -13 -9.5 -22.5t-22.5 -9.5t-22.5 9.5t-9.5 22.5v32q0 13 9.5 22.5t22.5 9.5zM128 384q13 0 22.5 -9.5t9.5 -22.5
t-9.5 -22.5t-22.5 -9.5t-22.5 9.5t-9.5 22.5t9.5 22.5t22.5 9.5zM256 384h32q13 0 22.5 -9.5t9.5 -22.5v-32q0 -13 -9.5 -22.5t-22.5 -9.5q-26 0 -45 19t-19 45q0 13 9.5 22.5t22.5 9.5zM416 384h32q13 0 22.5 -9.5t9.5 -22.5v-32q0 -13 -9.5 -22.5t-22.5 -9.5h-32
q-13 0 -22.5 9.5t-9.5 22.5v32q0 13 9.5 22.5t22.5 9.5zM576 384h32q13 0 22.5 -9.5t9.5 -22.5v-32q0 -13 -9.5 -22.5t-22.5 -9.5h-32q-13 0 -22.5 9.5t-9.5 22.5v32q0 13 9.5 22.5t22.5 9.5zM736 384h32q13 0 22.5 -9.5t9.5 -22.5q0 -26 -19 -45t-45 -19q-13 0 -22.5 9.5
t-9.5 22.5v32q0 13 9.5 22.5t22.5 9.5zM896 384q13 0 22.5 -9.5t9.5 -22.5t-9.5 -22.5t-22.5 -9.5t-22.5 9.5t-9.5 22.5t9.5 22.5t22.5 9.5zM186 276q39 -52 102 -52q36 0 64 25q28 -25 64 -25h32q36 0 64 25q28 -25 64 -25h32q36 0 64 25q28 -25 64 -25q63 0 102 52
q26 -20 58 -20q10 0 20 2q-13 -29 -34.5 -51t-51 -34.5t-62.5 -12.5h-512q-49 0 -89 27t-59 71q10 -2 20 -2q32 0 58 20z" />
    <glyph glyph-name="telegram-plane" unicode="&#xee32;" 
d="M834 832q-13 0 -30 -7q-6 -3 -118 -49q-35 -15 -116 -49t-120 -51l-336 -142l2 1q-12 -4 -24 -12q-12 -7 -19 -18q-11 -17 -9 -35q4 -27 29 -45l21 -11l157 -53q2 -6 26.5 -87.5t30.5 -99.5q8 -26 18 -38q6 -7 13 -12q2 -1 5 -2q1 -1 2 -1q1 -1 4 -1q5 -2 10 -2t9.5 0.5
t8.5 1.5t7 2.5l5 2.5t3 2l1 1l2 1l92 84l154 -119l4 -2q25 -9 46.5 -6t35.5 14q5 4 9.5 8.5t7 8.5t4.5 7.5t2 5.5l1 2l1 3l120 612q5 25 0 43q-6 22 -25 34q-16 9 -34 8zM831 766q0 -3 -1 -6l-118 -605q-2 -3 -4 -5q-4 -3 -15 1l-189 145l-114 -104l24 153q296 276 309 288
l9 15q0 14 -20 4l-389 -242l-1 1l-186 63l2 1q167 71 336 142q187 78 237 99q98 42 117 50h3z" />
    <glyph glyph-name="telegram" unicode="&#xee33;" 
d="M834 832q-13 0 -30 -7q-6 -3 -118 -49q-35 -15 -116 -49t-120 -51l-336 -142l2 1q-12 -4 -24 -12q-12 -7 -19 -18q-11 -17 -9 -35q4 -27 29 -45l21 -11l157 -53q2 -6 26.5 -87.5t30.5 -99.5q8 -26 18 -38q6 -7 13 -12q2 -1 5 -2q1 -1 2 -1q1 -1 4 -1q5 -2 10 -2t9.5 0.5
t8.5 1.5t7 2.5l5 2.5t3 2l1 1l2 1l92 84l154 -119l4 -2q25 -9 46.5 -6t35.5 14q5 4 9.5 8.5t7 8.5t4.5 7.5t2 5.5l1 2l1 3l120 612q5 25 0 43q-6 22 -25 34q-16 9 -34 8zM831 766q0 -3 -1 -6l-118 -605q-2 -3 -4 -5q-4 -3 -15 1l-189 145l-114 -104l24 153q296 276 309 288
l9 15q0 14 -20 4l-389 -242l-1 1l-186 63l2 1q167 71 336 142q187 78 237 99q98 42 117 50h3z" />
    <glyph glyph-name="temperature-high-solid" unicode="&#xee34;" 
d="M288 832v-367q-96 -70 -96 -177q0 -93 65.5 -158.5t158.5 -65.5t158.5 65.5t65.5 158.5q0 107 -96 177v47h64v64h-64v64h64v64h-64v64h64v64h-320zM784 832q-46 0 -79 -33t-33 -79t33 -79t79 -33t79 33t33 79t-33 79t-79 33zM352 768h128v-333l16 -9q37 -21 58.5 -57.5
t21.5 -80.5q0 -67 -46.5 -113.5t-113.5 -46.5t-113.5 46.5t-46.5 113.5q0 44 21.5 80.5t58.5 57.5l16 9v333zM784 768q20 0 34 -14t14 -34t-14 -34t-34 -14t-34 14t-14 34t14 34t34 14zM384 704v-326q-28 -10 -46 -34.5t-18 -55.5q0 -40 28 -68t68 -28t68 28t28 68
q0 31 -18 55.5t-46 34.5v326h-64z" />
    <glyph glyph-name="temperature-low-solid" unicode="&#xee35;" 
d="M288 832v-367q-96 -70 -96 -177q0 -93 65.5 -158.5t158.5 -65.5t158.5 65.5t65.5 158.5q0 107 -96 177v47h64v64h-64v64h64v64h-64v64h64v64h-320zM784 832q-46 0 -79 -33t-33 -79t33 -79t79 -33t79 33t33 79t-33 79t-79 33zM352 768h128v-333l16 -9q37 -21 58.5 -57.5
t21.5 -80.5q0 -67 -46.5 -113.5t-113.5 -46.5t-113.5 46.5t-46.5 113.5q0 44 21.5 80.5t58.5 57.5l16 9v333zM784 768q20 0 34 -14t14 -34t-14 -34t-34 -14t-34 14t-14 34t14 34t34 14zM384 448v-70q-28 -10 -46 -34.5t-18 -55.5q0 -40 28 -68t68 -28t68 28t28 68
q0 31 -18 55.5t-46 34.5v70h-64z" />
    <glyph glyph-name="tencent-weibo" unicode="&#xee36;" 
d="M544 896q-119 0 -203.5 -84.5t-84.5 -203.5q0 -72 34 -135q17 30 42 65q-12 36 -12 70q0 93 65.5 158.5t158.5 65.5t158.5 -65.5t65.5 -158.5t-65.5 -158.5t-158.5 -65.5q-37 0 -74 13q-18 -29 -30 -57q51 -20 104 -20q119 0 203.5 84.5t84.5 203.5t-84.5 203.5
t-203.5 84.5zM544 704q-40 0 -68 -28t-28 -68q0 -12 6 -30q-198 -183 -198 -546h64q0 331 173 495q24 -15 51 -15q40 0 68 28t28 68t-28 68t-68 28z" />
    <glyph glyph-name="tenge-solid" unicode="&#xee37;" 
d="M212 800q-5 0 -10 -2.5t-7.5 -7t-2.5 -10.5v-88q0 -5 2.5 -10t7.5 -7.5t10 -2.5h600q8 0 14 6t6 14v88q0 8 -6 14t-14 6h-600zM212 576q-8 0 -14 -6t-6 -14v-88q0 -8 6 -14t14 -6h236v-364q0 -8 6 -14t14 -6h88q8 0 14 6t6 14v364h236q8 0 14 6t6 14v88q0 8 -6 14t-14 6
h-600z" />
    <glyph glyph-name="terminal-solid" unicode="&#xee38;" 
d="M128 800v-704h768v704h-768zM192 736h640v-64h-640v64zM192 608h640v-448h-640v448zM359 519l-46 -46l89 -89l-89 -89l46 -46l112 112l22 23l-22 23zM512 320v-64h192v64h-192z" />
    <glyph glyph-name="text-height-solid" unicode="&#xee39;" 
d="M128 768v-64h224v-576h64v576h224v64h-512zM800 748l-112 -140h80v-320h-80l112 -140l112 140h-80v320h80z" />
    <glyph glyph-name="text-width-solid" unicode="&#xee3a;" 
d="M256 768v-64h224v-448h64v448h224v64h-512zM320 272l-140 -112l140 -112v80h384v-80l140 112l-140 112v-80h-384v80z" />
    <glyph glyph-name="th-large-solid" unicode="&#xee3b;" 
d="M160 800v-704h704v704h-704zM224 736h256v-256h-256v256zM544 736h256v-256h-256v256zM224 416h256v-256h-256v256zM544 416h256v-256h-256v256z" />
    <glyph glyph-name="th-list-solid" unicode="&#xee3c;" 
d="M128 768v-640h768v640h-768zM192 704h160v-128h-160v128zM416 704h416v-128h-416v128zM192 512h160v-128h-160v128zM416 512h416v-128h-416v128zM192 320h160v-128h-160v128zM416 320h416v-128h-416v128z" />
    <glyph glyph-name="th-solid" unicode="&#xee3d;" 
d="M96 768v-640h832v640h-832zM160 704h128v-128h-128v128zM352 704h128v-128h-128v128zM544 704h128v-128h-128v128zM736 704h128v-128h-128v128zM160 512h128v-128h-128v128zM352 512h128v-128h-128v128zM544 512h128v-128h-128v128zM736 512h128v-128h-128v128zM160 320
h128v-128h-128v128zM352 320h128v-128h-128v128zM544 320h128v-128h-128v128zM736 320h128v-128h-128v128z" />
    <glyph glyph-name="the-red-yeti" unicode="&#xee3e;" 
d="M395 864q-44 -34 -51 -68q-11 31 -22 40q-4 -9 -4 -18.5t3 -19.5q7 -18 13 -28q-40 8 -74 0h-6l50 -22q-46 -42 -70 -101l-3 -12l3 -3l11 7q-7 -24 -10 -38q-25 -28 -42 -61q-10 -1 -21 -4.5t-24.5 -10t-14.5 -6.5l5 -5l43 -2q-1 -1 -1.5 -2.5t-0.5 -2.5l-6.5 -6.5
t-10 -10.5t-11 -14t-10.5 -18t-8.5 -21.5t-4 -24t0.5 -26.5l31 34q0 -2 0.5 -4.5t1.5 -3.5q0 -134 97 -226q20 -18 41 -32.5t44 -25t47 -18t50 -11t54 -3.5q91 0 167.5 40t122 113t45.5 164q11 16 25 38l19 -22l4 1q-2 13 -5.5 26t-7.5 26q-4 10 -11 19l31 -10
q-6 16 -16.5 31.5t-15 20l-15.5 15.5l11 27l1.5 4.5t3 11t2 13t-2 11.5t-8.5 6q-1 15 -8.5 28t-19.5 13q-17 23 -46 9q-20 -10 -38 -25q-1 1 -2 2.5t-1.5 2t-1 1.5t-0.5 2v2.5v4.5v6.5t0.5 10t0.5 13.5q-14 9 -25.5 13.5t-18.5 6.5t-17 -0.5t-14.5 -5t-17.5 -9.5t-20 -10
l1 -1q-50 18 -102 20q-4 6 -10 12.5t-17 16l-11 9.5l37 -11q-10 10 -51 23q8 2 15 5.5t14 9.5t12 11t11.5 12.5t11.5 11.5q-79 22 -147 -18l18 66zM384 843q-3 -9 -5.5 -18.5t-4.5 -19.5l-2 -10l-1 -7l4 -4q48 29 107 28l31 -1q-8 -10 -19 -17.5t-24.5 -12.5t-28.5 -7
q-18 -3 -35 -4l-1 1l-3 1q-12 3 -21 -3q-2 1 -11 1l-4 -2l1 -2q1 0 4 -0.5t5 -0.5l-3 -5l5 1l-16 -17q-4 -3 -5.5 -7t-0.5 -7l8 5h2q14 19 38 23v4q7 0 10 -0.5t8.5 -0.5t10.5 -1l8 -1q16 -9 31 -21q15 -11 26.5 -24.5t18.5 -28.5q20 -41 20 -85q0 -21 -4 -42
q-8 -36 -24 -69l4 -1q6 7 14 12t14.5 7.5t14.5 4t12 1.5t11 -0.5l7 -0.5l-9 -9l33 -26l-2 -46q-12 26 -50 42l8 -8l25 -23q-5 3 -16 6q6 -6 16.5 -17.5t10.5 -14.5q0 -2 -21 -34q-39 8 -74.5 21t-52 22t-47.5 28.5t-38 23.5l18 -2q-3 4 -5 7.5t-4 6t-4.5 4.5t-4.5 4
t-4.5 3.5t-4.5 2.5t-6 2.5t-7 2.5t-8 2.5t-9 3.5l15 13q-20 6 -42 -1l11 16l-1 2q-19 -5 -34 -17q-1 4 -2 7t-3 8.5t-5.5 12.5t-8.5 15l-1 -40l-20 7q2 30 6.5 58t13.5 54l1 3q3 5 14 23l4 5l-19 -19l-8 -7l-6 -1q14 27 26.5 46t22.5 29l19.5 19.5t10.5 9.5l-9 -2
q-28 10 -38 13q4 1 5 1q23 0 32 -2q11 -4 24 -4v3l-12 53l20 -43q6 10 9 21q3 14 15 29q12 16 14 17zM421 757q-5 -1 -10 -4q-8 -5 -18.5 -12.5t-17 -13.5t-7.5 -8q-4 -3 -8 -20q-5 -17 -5 -35q-4 8 -12 9t-18 0l11 -12q-23 0 -35 -24q3 0 13 7.5t32 11.5q-6 8 -8 10
q7 -6 13.5 -11.5t9.5 -8.5t7.5 -6t9 -4.5t12 -3t18.5 -2.5l-4 7q19 17 22 43q4 35 -13 62l19 11q0 1 -1 3q-5 2 -10 1zM440 747v-4l6 -3l-4 -1l1 -5q10 1 20 -1.5t19 -6.5q-10 21 -42 21zM404 738q6 -1 11 -15q6 -18 5 -38q-2 -21 -13 -34q-9 -11 -10 -12q-8 -1 -17 1l-10 5
l-8 10q0 2 0.5 6t0.5 6t0.5 5.5t0.5 6t0.5 5l1 5t0.5 5.5q3 15 10 25q12 14 24 18q2 1 4 1zM454 727q-9 -3 -12 -30q-4 -36 18 -59q20 -22 39 -5q4 5 5 11.5t-1 15.5t-7.5 20t-13.5 25q-4 6 -9.5 11.5t-12.5 9.5q-3 2 -6 1zM456 720q4 1 15 -8q14 -11 23 -48q6 -29 -12 -32
q-17 -2 -27 19l-2 5q5 -1 8.5 -1t6.5 4t4 13v7l-2 -1q-4 6 -2 10q-8 11 -18 -6q-2 30 4 37q1 1 2 1zM660 712l2 -1t4 -2.5t5 -3.5t5.5 -4.5t5.5 -6t6 -7.5q7 -14 5 -17q-1 -7 -4 -11q-2 -2 -6.5 -5t-11.5 -6q-4 6 -7.5 11t-7.5 10t-8 9.5t-9 8.5l-10 8zM684 712q13 0 35 -15
l-1 -33q4 -12 11.5 -18t11.5 -6.5t11 -0.5l-5 7l33 8q-3 -1 -6.5 -1h-6.5h-6.5h-7h-7t-6.5 1q6 1 16 7.5t17.5 11.5t17 6.5t13.5 -8.5q7 -15 14 -42l3 9q-1 5 -2 11t-1 12q5 -1 7.5 -2.5t4.5 -5t2 -7.5q1 -12 5 -38l7 17q5 0 5 -2l-8 -30q-31 13 -70 13l27 24
q-48 -16 -82 -31q-4 18 -24 30l-2 -2q-2 -3 0 -11q0 -6 1 -10h-4q-1 10 -4.5 18.5t-7.5 16.5l6 5q19 16 16 33q-1 7 -6 15t-14 16q3 2 7 2zM390 703q-9 0 -12.5 -11.5t0.5 -20.5q3 -5 8 -6q1 -1 2.5 -0.5t3.5 2t3.5 3.5t3 6.5t0.5 10.5q-5 1 -4 4.5t3 4.5q-2 3 -4 4.5
t-4 2.5zM335 631q-14 -1 -29 -8q1 0 2 -1.5t3 -5t4 -7.5q10 15 23 16q-4 -25 2 -50q6 -27 42 -36q24 -7 73 8l-14 -1q-10 35 -9 44q26 20 46 12h4l-17 11l-11 -1q-12 -2 -29 -12l4 9q-49 -20 -54 -21t-9 -0.5t-7 2.5t-5 4.5t-3.5 6t-2 7t-1 6.5t-0.5 5.5v4v1.5l9 2l-1 4
q-10 1 -20 0zM775 621l-22 -20l1 -4l26 1q25 -1 50 -7l-36 -3l-1 -5l40 -35q22 -22 40 -48q-17 6 -32 6l19 -49l-14 19l-4 -1l5 -14q-42 -71 -107 -119q-56 -43 -122 -61l-11 11l-2 -5l21 -24l-10 7l5 -6h-2l-33 20l14 -40l-28 42l-2 -3l11 -44q0 1 -3 5t-5 6.5t-6 7t-7.5 8
t-8.5 8t-11 8t-12.5 7t-14.5 6t-17 3.5l49 -31q-71 -11 -140 9q-14 4 -20 7l2 4l-68 34l39 -34q-65 -10 -119.5 25.5t-69.5 99.5l-4 25l-33 -34q11 33 18 50.5t17.5 28.5t16 14t25.5 12q-2 1 -3.5 2.5t-2.5 2t-3 1t-4.5 1.5t-4 1t-6 1t-8.5 1.5t-11.5 1.5t-14.5 2q1 1 8 3.5
t9 3t9 2.5t10.5 2t10.5 0.5t13 -1l14 -3.5t17 -5.5t19 -8.5q2 1 5 2q1 4 2 18q5 -13 4 -14l3 -1l10 6q6 3 13 6l2 2l-8 -21l34 9l-13 -13l4 -3q7 2 29 -5t32 -19l-35 3q65 -38 83 -104l3 2q-1 9 -3.5 17.5t-5.5 15.5t-5.5 11t-5.5 9.5t-4 6.5q6 -7 21.5 -18t56 -27t88.5 -24
q-27 1 -53 -28l70 30l-14 -33q18 23 32 60l2 5l-2 -24q10 31 28 86t25 78l20 42v3l-8 6h16l8 -6l4 2l-5 24l19 -29zM837 583l-6 -20l-21 18zM455 572q4 -23 13 -33q-27 -19 -70 -24l1 -1q19 -3 37 3l-10 -19q7 3 26 22l5 2.5l4 2t3.5 1.5t3 1.5t2 1.5t2.5 2t2.5 2t2.5 3
t2.5 3.5t2.5 4.5q-3 2 -5.5 3.5t-4.5 3.5t-4 3t-3.5 3t-2.5 3t-2.5 3.5t-2 3t-1.5 3zM197 334q21 -23 47.5 -37t47.5 -18.5t43 -4.5t30 1.5t13 2.5q86 -40 171 -16q2 0 9.5 -7t16 -21.5t12.5 -29.5l6 4l-4 36q6 -6 11.5 -11t14 -9.5t14 -4t12.5 4.5q-20 7 -29 16t-16 32
q17 -15 42 -23l2 2l-16 21q3 2 48 17q1 -8 3 -23.5t3 -22t2 -18.5t0 -21t-2.5 -22t-4.5 -28q-21 -10 -37 -17.5t-25 -10.5t-14.5 -4.5t-8 -2t-3.5 -1.5q-67 27 -95 89l45 -25q-31 29 -58 66l18 -34l-27 11q3 -5 7 -11t7 -11.5t7 -12.5t8 -13t9.5 -13t11.5 -13t13.5 -12.5
t16.5 -12.5t20 -11q-29 -6 -58 -5.5t-52.5 4.5t-47.5 13.5t-41 18t-35.5 21.5t-27.5 20.5t-21 19.5l-13 13t-5 6q25 -20 53 -37q9 -4 15 -2l-24 31q9 -4 14 -6t25.5 -10.5t63.5 -26.5q-96 47 -139 90l-2 -15q20 -17 31 -40q-41 20 -65.5 50.5t-41.5 73.5z" />
    <glyph glyph-name="theater-masks-solid" unicode="&#xee3f;" 
d="M568 870l-26 -7q-133 -35 -226 -79q-40 -18 -91.5 -47.5t-82.5 -49.5l-32 -20l-22 -15l11 -25q85 -191 124 -275l1 -1q14 -32 58 -54q3 -29 23 -65q23 -44 68 -93q23 -25 49.5 -50t41.5 -37l15 -13l10 -8l13 1q70 6 144 24q67 16 110 39q61 32 75 78l96 310l8 26l-25 12
q-125 63 -227 97l-104 228zM533 792q35 -76 70 -151q-41 10 -87.5 18.5t-72.5 12.5l-26 3l-27 3l-8 -25q-11 -34 -13 -41l-99 -67l36 -53l34 23q-21 -67 -46 -151q-9 7 -12 14q-41 88 -113 248q110 71 174 100q67 32 190 66zM435 607q139 -20 218 -45q79 -26 204 -87
q-73 -236 -78 -251l-10 -32q-6 -21 -43 -40q-38 -20 -95 -34q-54 -13 -122 -20q-48 39 -88 84q-41 45 -60 81q-20 37 -14 57q29 97 88 287zM461 453l-19 -61l121 -39l19 62zM631 402l-20 -61l118 -39l20 61zM500 321l-60 -22q1 -3 3.5 -8t11 -19t19 -25.5t29.5 -24t40 -19.5
h2q38 -10 69 -4.5t50 17.5l20 11l-37 52q-5 -3 -13 -7t-31 -10t-40 2l-1 1q-19 5 -34.5 19t-21.5 26z" />
    <glyph glyph-name="themeco" unicode="&#xee40;" 
d="M507 864q-12 0 -23 -3t-21 -8l-291 -163q-19 -11 -31.5 -32.5t-12.5 -42.5v-332q0 -14 5.5 -28.5t16 -27t22.5 -19.5l291 -165q19 -11 44 -11t44 10l300 166q13 7 23.5 19.5t16 27t5.5 28.5v332q0 14 -6 29t-16 27t-23 19l-300 164q-19 10 -44 10zM508 800q8 0 12 -2
l300 -164q2 -1 3.5 -3l3 -4l3 -4t2 -4.5t0.5 -3.5v-332q0 -4 -4 -10t-8 -9l-300 -166q-5 -2 -13 -2t-12 2l-291 166q-4 2 -8 8.5t-4 10.5v332q0 2 2 6.5t4.5 8t5.5 4.5l290 163q2 1 3.5 1.5l3 1t3.5 0.5h4zM678 540q-25 0 -44 -10.5t-29.5 -26.5t-15.5 -35.5t-0.5 -39
t14.5 -35.5t29.5 -26.5t45.5 -10.5q34 0 57.5 19t29 46t0 54t-29 46t-57.5 19zM339 536h-41.5h-41.5v-176h33v52h50q30 0 47.5 19.5t17.5 43t-17.5 42.5t-47.5 19zM426 536v-176h33v59h32l51 -59h40v3l-54 60q23 4 35 22.5t10 38.5t-18.5 36t-44.5 16h-42h-42zM677.5 510
q27.5 0 43 -19.5t15.5 -42.5t-15.5 -42t-43 -19t-43 19t-15.5 42t15.5 42.5t43 19.5zM288 508h56q17 0 24.5 -17t0 -33.5t-24.5 -16.5h-56v67zM459 505h51q8 0 14.5 -3t10 -8t5 -11t0 -12t-5 -11t-10 -8t-14.5 -3h-51v56z" />
    <glyph glyph-name="themeisle" unicode="&#xee41;" 
d="M645 832q-9 0 -17.5 -2t-16.5 -5.5t-15.5 -8.5t-13.5 -11q-11 1 -26 1q-59 0 -112 -28t-91 -76q-6 -8 -11.5 -16.5t-11 -18t-9.5 -16.5q-1 -2 -5.5 -6.5l-5.5 -5.5q-5 -6 -9.5 -11.5t-8.5 -11.5q-9 22 -35 22q-34 0 -61 -26.5t-41 -66.5t-20.5 -77.5t-6.5 -69.5
q0 -45 10 -69q21 -48 103 -131q-46 -28 -101 -17q30 -41 78 -54q-22 -8 -45 -9q40 -34 90 -34q47 0 85 29q0 -20 12 -34.5t32 -14.5q24 0 37 21q14 -21 38 -21t36 21q14 -21 37.5 -21t37.5 21q13 -21 37 -21q18 0 31 13.5t13 32.5l1 49q25 7 61 25t70 40.5t51 40.5
q25 28 39.5 87.5t14.5 107.5q0 36 -8.5 68t-30.5 51q-23 21 -42 21q-5 0 -10 -1.5t-9 -4.5t-7 -7q-4 24 -11 46t-17.5 42.5t-24.5 39.5t-32 34q7 8 7 11q0 10 -23 18q0 1 4 5l7 7t5.5 7t2.5 5q0 3 -2 6q-25 24 -60 24zM458 753q22 0 35.5 -17t13.5 -38q0 -22 -13.5 -39
t-35 -17t-35 17t-13.5 39q0 14 6 26.5t17 20.5t25 8zM467 732q-9 0 -15 -5t-9 -12.5t-3 -14.5q0 -4 1 -8t2.5 -7.5t3.5 -7t5 -5.5t6.5 -3.5t8.5 -1.5q8 0 14 5t9 12.5t3 15.5q0 3 -1 7t-2.5 7.5t-3.5 7t-5 5.5t-6.5 3.5t-7.5 1.5zM638 711q62 0 100 -47.5t38 -110.5
q0 -44 -18 -86t-50 -71q2 16 2 27.5t-5 19t-11.5 11.5t-16 5.5t-19 1t-21 -2t-20.5 -3t-19 -3t-17 -1.5q-123 0 -62 205q24 25 55 40t64 15zM497 628q-12 -50 -12 -87q0 -49 20.5 -74.5t56 -28t83.5 6.5q13 3 21 3q10 0 17 -4t10 -11t3 -18q0 -7 -1.5 -15.5t-3.5 -17.5
q-43 -30 -90 -30q-36 0 -65.5 17t-47 46t-24 64t2 75t30.5 74zM291 589q-3 -13 -5 -25t-3 -24.5t-1 -25.5q0 -69 29.5 -129.5t85.5 -98t126 -37.5q50 0 96.5 20t82 54.5t59.5 79.5q-1 -16 -3.5 -31.5t-6.5 -31t-9 -30.5t-12 -29.5t-15 -28t-17.5 -26t-20.5 -24t-24 -21.5
q-5 10 -15.5 17t-22.5 7q-24 0 -37 -22q-6 10 -16 16t-21 6q-24 0 -38 -22q-12 22 -36 22t-38 -22q-13 22 -37 22q-26 0 -39 -25q-51 43 -79 107.5t-28 133.5q0 92 45 168zM392.5 190q12.5 0 21.5 -9.5t9 -21.5v-49q0 -13 -9 -22.5t-21.5 -9.5t-21.5 9.5t-9 22.5v49
q0 12 9 21.5t21.5 9.5zM466.5 190q12.5 0 21.5 -9.5t9 -21.5v-49q0 -13 -9 -22.5t-21.5 -9.5t-21.5 9.5t-9 22.5v49q0 12 9 21.5t21.5 9.5zM540.5 190q12.5 0 21.5 -9.5t9 -21.5v-49q0 -13 -9 -22.5t-21.5 -9.5t-21.5 9.5t-9 22.5v49q0 12 9 21.5t21.5 9.5zM615.5 190
q12.5 0 21.5 -9.5t9 -21.5v-49q0 -6 -2.5 -12t-6.5 -10.5t-9.5 -7t-12.5 -2.5q-12 0 -21 9.5t-9 22.5v49q0 12 9 21.5t21.5 9.5z" />
    <glyph glyph-name="thermometer-empty-solid" unicode="&#xee42;" 
d="M416 800v-352q-44 -26 -70 -68t-26 -92q0 -79 56.5 -135.5t135.5 -56.5t135.5 56.5t56.5 135.5q0 50 -26 92t-70 68v32h64v64h-64v64h64v64h-64v64h64v64h-256zM480 736h64v-322l19 -9q35 -15 56 -46.5t21 -70.5q0 -53 -37.5 -90.5t-90.5 -37.5t-90.5 37.5t-37.5 90.5
q0 39 21 70.5t56 46.5l19 9v322z" />
    <glyph glyph-name="thermometer-full-solid" unicode="&#xee43;" 
d="M384 832v-367q-96 -70 -96 -177q0 -93 65.5 -158.5t158.5 -65.5t158.5 65.5t65.5 158.5q0 107 -96 177v47h64v64h-64v64h64v64h-64v64h64v64h-320zM448 768h128v-333l16 -9q37 -21 58.5 -57.5t21.5 -80.5q0 -67 -46.5 -113.5t-113.5 -46.5t-113.5 46.5t-46.5 113.5
q0 44 21.5 80.5t58.5 57.5l16 9v333zM480 704v-326q-28 -10 -46 -34.5t-18 -55.5q0 -40 28 -68t68 -28t68 28t28 68q0 31 -18 55.5t-46 34.5v326h-64z" />
    <glyph glyph-name="thermometer-half-solid" unicode="&#xee44;" 
d="M384 832v-368q-96 -69 -96 -176q0 -94 65 -159t159 -65t159 65t65 159q0 53 -26.5 99.5t-69.5 76.5v48h64v64h-64v64h64v64h-64v64h64v64h-320zM448 768h128v-333l16 -9q37 -23 58.5 -58.5t21.5 -79.5q0 -67 -46.5 -113.5t-113.5 -46.5t-113.5 46.5t-46.5 113.5
q0 44 21.5 79.5t58.5 58.5l16 9v333zM480 544v-166q-29 -10 -46.5 -34.5t-17.5 -55.5q0 -41 27.5 -68.5t68.5 -27.5t68.5 27.5t27.5 68.5q0 31 -17.5 55.5t-46.5 34.5v166h-64z" />
    <glyph glyph-name="thermometer-quarter-solid" unicode="&#xee45;" 
d="M384 832v-368q-96 -69 -96 -176q0 -94 65 -159t159 -65t159 65t65 159q0 54 -26 100.5t-70 75.5v48h64v64h-64v64h64v64h-64v64h64v64h-320zM448 768h128v-333l16 -9q18 -10 33 -24.5t25 -32.5t16 -39t6 -42q0 -67 -46.5 -113.5t-113.5 -46.5t-113.5 46.5t-46.5 113.5
q0 28 10 55t28 48.5t42 34.5l16 9v333zM442 352q-26 -26 -26 -64q0 -41 27.5 -68.5t68.5 -27.5t68.5 27.5t27.5 68.5q0 38 -26 64h-140z" />
    <glyph glyph-name="thermometer-solid" unicode="&#xee46;" 
d="M696 832q-83 0 -142 -59l-245 -244l-4 -5q-49 -49 -49 -118v-74l-99 -98l-1 -2q-28 -29 -27.5 -70t28.5 -69q29 -29 70.5 -29t70.5 29l98 99h74q69 0 118 49l249 249q58 58 58 141.5t-58 141.5q-59 59 -141 59zM696 768q56 0 96 -40t40 -96.5t-40 -96.5l-249 -249
q-30 -30 -73 -30h-100l-118 -118q-10 -10 -25 -10t-25 10t-10 25t10 25l118 118v100q0 43 30 73l27 27l32 -33l46 46l-32 32l50 50l32 -32l46 46l-32 32l50 50l32 -32l46 46l-31 31q36 26 80 26zM713 695l-391 -391l46 -46l391 391z" />
    <glyph glyph-name="thermometer-three-quarters-solid" unicode="&#xee47;" 
d="M384 832v-368q-96 -69 -96 -176q0 -94 65 -159t159 -65t159 65t65 159q0 53 -26.5 99.5t-69.5 76.5v48h64v64h-64v64h64v64h-64v64h64v64h-320zM448 768h128v-333l16 -9q37 -23 58.5 -58.5t21.5 -79.5q0 -67 -46.5 -113.5t-113.5 -46.5t-113.5 46.5t-46.5 113.5
q0 44 21.5 79.5t58.5 58.5l16 9v333zM480 640v-262q-29 -10 -46.5 -34.5t-17.5 -55.5q0 -41 27.5 -68.5t68.5 -27.5t68.5 27.5t27.5 68.5q0 31 -17.5 55.5t-46.5 34.5v262h-64z" />
    <glyph glyph-name="think-peaks" unicode="&#xee48;" 
d="M496 882l-400 -690h74l326 563l324 -557l126 218h-74l-52 -90zM497 626l-215 -370h74l141 243l272 -467h74z" />
    <glyph glyph-name="thumbs-down-solid" unicode="&#xee49;" 
d="M325 768q-34 0 -60.5 -21.5t-33.5 -54.5l-69 -320q-9 -44 20 -80t74 -36h184l-6 -24q-12 -10 -20 -20q-30 -41 -30 -95q0 -35 27.5 -60t65.5 -25h13l10 9l217 215h147v512h-539zM325 704h347v-403l-205 -202q-19 4 -19 18q0 35 17 58l14 14l11 6l4 13l19 72l10 40h-267
q-16 0 -25 11.5t-6 27.5l68 320q2 11 11 18t21 7zM736 704h64v-384h-64v384z" />
    <glyph glyph-name="thumbs-down" unicode="&#xee4a;" 
d="M325 768q-34 0 -60.5 -21.5t-33.5 -54.5l-69 -320q-9 -44 20 -80t74 -36h184l-6 -24q-12 -10 -20 -20q-30 -41 -30 -95q0 -35 27.5 -60t65.5 -25h13l10 9l217 215h147v512h-539zM325 704h347v-403l-205 -202q-19 4 -19 18q0 35 17 58l14 14l11 6l4 13l19 72l10 40h-267
q-16 0 -25 11.5t-6 27.5l68 320q2 11 11 18t21 7zM736 704h64v-384h-64v384z" />
    <glyph glyph-name="thumbs-up-solid" unicode="&#xee4b;" 
d="M534 864l-10 -9l-217 -215h-147v-512h539q34 0 60.5 21.5t33.5 54.5l69 320q9 44 -20 80t-74 36h-184l6 24q12 10 20 20q30 41 30 95q0 35 -27.5 60t-65.5 25h-13zM557 797q19 -4 19 -18q0 -35 -17 -58l-14 -14l-11 -6l-4 -13l-19 -72l-10 -40h267q16 0 25 -11.5t6 -27.5
l-68 -320q-2 -11 -11 -18t-21 -7h-347v403zM224 576h64v-384h-64v384z" />
    <glyph glyph-name="thumbs-up" unicode="&#xee4c;" 
d="M534 864l-10 -9l-217 -215h-147v-512h539q34 0 60.5 21.5t33.5 54.5l69 320q9 44 -20 80t-74 36h-184l6 24q12 10 20 20q30 41 30 95q0 35 -27.5 60t-65.5 25h-13zM557 797q19 -4 19 -18q0 -35 -17 -58l-14 -14l-11 -6l-4 -13l-19 -72l-10 -40h267q16 0 25 -11.5t6 -27.5
l-68 -320q-2 -11 -11 -18t-21 -7h-347v403zM224 576h64v-384h-64v384z" />
    <glyph glyph-name="thumbtack-solid" unicode="&#xee4d;" 
d="M657 878l-179 -244q-65 11 -127.5 -7.5t-110.5 -66.5l-23 -22l170 -170l-259 -259v-45h45l259 259l170 -170l22 23q48 48 66.5 110.5t7.5 127.5l244 179zM665 780l179 -179l-217 -159l6 -21q23 -86 -38 -171l-281 281q85 61 171 38l21 -6l13 18z" />
    <glyph glyph-name="ticket-alt-solid" unicode="&#xee4e;" 
d="M64 736v-224h32q29 0 46.5 -17.5t17.5 -46.5t-17.5 -46.5t-46.5 -17.5h-32v-224h896v224h-32q-29 0 -46.5 17.5t-17.5 46.5t17.5 46.5t46.5 17.5h32v224h-896zM128 672h768v-102q-42 -11 -69 -44.5t-27 -77.5t27 -77.5t69 -44.5v-102h-768v102q42 11 69 44.5t27 77.5
t-27 77.5t-69 44.5v102z" />
    <glyph glyph-name="times-circle-solid" unicode="&#xee4f;" 
d="M512 864q-172 0 -294 -122t-122 -294t122 -294t294 -122t294 122t122 294t-122 294t-294 122zM512 800q146 0 249 -103t103 -249t-103 -249t-249 -103t-249 103t-103 249t103 249t249 103zM391 615l-46 -46l121 -121l-121 -121l46 -46l121 121l121 -121l46 46l-121 121
l121 121l-46 46l-121 -121z" />
    <glyph glyph-name="times-circle" unicode="&#xee50;" 
d="M512 864q-172 0 -294 -122t-122 -294t122 -294t294 -122t294 122t122 294t-122 294t-294 122zM512 800q146 0 249 -103t103 -249t-103 -249t-249 -103t-249 103t-103 249t103 249t249 103zM391 615l-46 -46l121 -121l-121 -121l46 -46l121 121l121 -121l46 46l-121 121
l121 121l-46 46l-121 -121z" />
    <glyph glyph-name="times-solid" unicode="&#xee51;" 
d="M231 775l-46 -46l281 -281l-281 -281l46 -46l281 281l281 -281l46 46l-281 281l281 281l-46 46l-281 -281z" />
    </font>
</defs>
</svg>
