<?xml version="1.0" standalone="no"?>
<!DOCTYPE svg PUBLIC "-//W3C//DTD SVG 1.1//EN" "http://www.w3.org/Graphics/SVG/1.1/DTD/svg11.dtd" >
<svg xmlns="http://www.w3.org/2000/svg" xmlns:xlink="http://www.w3.org/1999/xlink" version="1.1">
<metadata>
Created by FontForge 20201107 at Sat Jul 31 04:32:51 2021
 By Unknown
</metadata>
<defs>
<font id="jkiticon" horiz-adv-x="1024" >
  <font-face 
    font-family="jkiticon"
    font-weight="400"
    font-stretch="normal"
    units-per-em="1024"
    panose-1="2 0 5 3 0 0 0 0 0 0"
    ascent="960"
    descent="-64"
    bbox="0 -64 1024.06 960"
    underline-thickness="0"
    underline-position="0"
    unicode-range="U+EC81-EDAB"
  />
<missing-glyph 
 />
    <glyph glyph-name=".notdef" 
 />
    <glyph glyph-name="medrt" unicode="&#xec81;" 
d="M475 864q-56 0 -109 -15t-98.5 -41.5t-83.5 -65t-64 -84t-41 -99.5t-15 -111q0 -113 55 -209t149.5 -151.5t206.5 -55.5q50 0 96 12q-67 11 -130 47.5t-111 89t-77 122.5t-29 145q0 60 19 117.5t53 104.5t78 85.5t96 63t106 33.5q-23 6 -49 9t-52 3zM561 736
q-93 0 -171 -58q-2 -2 -6 -5q54 14 107 8t102.5 -33.5t83.5 -72.5q43 -56 53.5 -125t-13.5 -130q71 68 81.5 160.5t-44.5 165.5q-34 44 -84.5 67t-108.5 23zM870 639q13 -30 19.5 -62t6.5 -65q0 -133 -93.5 -226.5t-226.5 -93.5q-28 0 -55 5t-52 14t-48.5 21.5t-43.5 29
t-38 36.5q11 -26 39 -65q50 -72 127.5 -108t162.5 -28t156 58.5t107 129t28.5 164.5t-58.5 158q-10 15 -31 32zM464 576q-7 0 -11.5 -4.5t-4.5 -11.5v-64q0 -7 -4.5 -11.5t-11.5 -4.5h-64q-7 0 -11.5 -4.5t-4.5 -11.5v-32q0 -7 4.5 -11.5t11.5 -4.5h64q7 0 11.5 -4.5
t4.5 -11.5v-64q0 -7 4.5 -11.5t11.5 -4.5h32q7 0 11.5 4.5t4.5 11.5v64q0 7 4.5 11.5t11.5 4.5h64q7 0 11.5 4.5t4.5 11.5v32q0 7 -4.5 11.5t-11.5 4.5h-64q-7 0 -11.5 4.5t-4.5 11.5v64q0 7 -4.5 11.5t-11.5 4.5h-32z" />
    <glyph glyph-name="meetup" unicode="&#xec82;" 
d="M304 928q-7 0 -11.5 -4.5t-4.5 -11.5t4.5 -11.5t11.5 -4.5t11.5 4.5t4.5 11.5t-4.5 11.5t-11.5 4.5zM592 896q-20 0 -34 -14t-14 -34t14 -34t34 -14t34 14t14 34t-14 34t-34 14zM448 800q-62 0 -111.5 -36t-69.5 -92q-58 -3 -98.5 -44.5t-40.5 -99.5q0 -32 15 -63
q-47 -47 -47 -113q0 -58 36.5 -102t91.5 -55v-1v-2q0 -66 47 -113t113 -47q57 0 102 37q37 -37 90 -37q44 0 78.5 27.5t45.5 69.5q69 4 116.5 54.5t47.5 120.5q0 55 -31 99q31 33 31 77q0 33 -17.5 60t-47.5 41q0 1 1 3v8q0 73 -51.5 124.5t-124.5 51.5q-29 0 -57 -10
q-12 10 -26 18t-29 13t-31 8t-33 3zM224 768q-13 0 -22.5 -9.5t-9.5 -22.5t9.5 -22.5t22.5 -9.5t22.5 9.5t9.5 22.5t-9.5 22.5t-22.5 9.5zM864 672q-13 0 -22.5 -9.5t-9.5 -22.5t9.5 -22.5t22.5 -9.5t22.5 9.5t9.5 22.5t-9.5 22.5t-22.5 9.5zM544 640q7 1 16 -1q3 0 6 -1
t5.5 -2t5 -2.5t4.5 -3t4.5 -4l4 -4t4.5 -4t4 -4.5q9 -9 23 0q6 3 9.5 4.5t12 3t21.5 1.5q15 -1 27.5 -5t23.5 -17.5t14 -35.5t-17.5 -72t-42 -102t-18.5 -79q1 -15 14 -21.5t27.5 -6.5t27.5 -6t16 -19q2 -18 -12 -27t-35 -8t-40 4.5t-29 8.5q-27 14 -41.5 42t-7.5 58
q4 15 39.5 89.5t37.5 83.5q2 21 -14 21q-12 1 -23 -16q-3 -5 -25.5 -49.5t-46 -92t-26.5 -51.5q-11 -22 -30.5 -28.5t-34 4t-11.5 32.5q1 5 28.5 73.5t28.5 79.5q4 21 -11 29q-8 4 -17 0t-12 -10q-3 -4 -43.5 -109t-44.5 -113q-18 -32 -50 -34q-39 -2 -62 26t-11 67l12 41
t22.5 75.5t24.5 74.5t23 55q13 24 43 37t53 3q11 -5 24.5 -11.5t22.5 -11.5q4 -1 7.5 -1t6.5 1t6 2.5t6 4t5.5 4.5t5 4.5t3.5 2.5q21 19 36 20zM976 544q-7 0 -11.5 -4.5t-4.5 -11.5t4.5 -11.5t11.5 -4.5t11.5 4.5t4.5 11.5t-4.5 11.5t-11.5 4.5zM48 512q-20 0 -34 -14
t-14 -34t14 -34t34 -14t34 14t14 34t-14 34t-34 14zM928 448q-13 0 -22.5 -9.5t-9.5 -22.5t9.5 -22.5t22.5 -9.5t22.5 9.5t9.5 22.5t-9.5 22.5t-22.5 9.5zM176 160q-7 0 -11.5 -4.5t-4.5 -11.5t4.5 -11.5t11.5 -4.5t11.5 4.5t4.5 11.5t-4.5 11.5t-11.5 4.5zM752 96
q-20 0 -34 -14t-14 -34t14 -34t34 -14t34 14t14 34t-14 34t-34 14zM480 32q-13 0 -22.5 -9.5t-9.5 -22.5t9.5 -22.5t22.5 -9.5t22.5 9.5t9.5 22.5t-9.5 22.5t-22.5 9.5z" />
    <glyph glyph-name="megaport" unicode="&#xec83;" 
d="M512 864q-172 0 -294 -122t-122 -294t122 -294t294 -122t294 122t122 294t-122 294t-294 122zM512 800q146 0 249 -103t103 -249t-103 -249t-249 -103t-249 103t-103 249t103 249t249 103zM512 736l-32 -32v-86l-64 -64v-97l-96 -76v-125l32 -32l32 32v94l48 38l48 -38
v-94l32 -32l32 32v94l48 38l48 -38v-94l32 -32l32 32v125l-96 76v97l-64 64v86zM512 560l32 -32v-86l-32 -32l-32 32v86z" />
    <glyph glyph-name="meh-blank-solid" unicode="&#xec84;" 
d="M512 864q-172 0 -294 -122t-122 -294t122 -294t294 -122t294 122t122 294t-122 294t-294 122zM512 800q146 0 249 -103t103 -249t-103 -249t-249 -103t-249 103t-103 249t103 249t249 103zM368 576q-20 0 -34 -14t-14 -34t14 -34t34 -14t34 14t14 34t-14 34t-34 14z
M656 576q-20 0 -34 -14t-14 -34t14 -34t34 -14t34 14t14 34t-14 34t-34 14z" />
    <glyph glyph-name="meh-blank" unicode="&#xec85;" 
d="M512 864q-172 0 -294 -122t-122 -294t122 -294t294 -122t294 122t122 294t-122 294t-294 122zM512 800q146 0 249 -103t103 -249t-103 -249t-249 -103t-249 103t-103 249t103 249t249 103zM368 576q-20 0 -34 -14t-14 -34t14 -34t34 -14t34 14t14 34t-14 34t-34 14z
M656 576q-20 0 -34 -14t-14 -34t14 -34t34 -14t34 14t14 34t-14 34t-34 14z" />
    <glyph glyph-name="meh-rolling-eyes-solid" unicode="&#xec86;" 
d="M512 864q-172 0 -294 -122t-122 -294t122 -294t294 -122t294 122t122 294t-122 294t-294 122zM512 800q146 0 249 -103t103 -249t-103 -249t-249 -103t-249 103t-103 249t103 249t249 103zM352 640q-53 0 -90.5 -37.5t-37.5 -90.5t37.5 -90.5t90.5 -37.5t90.5 37.5
t37.5 90.5t-37.5 90.5t-90.5 37.5zM672 640q-53 0 -90.5 -37.5t-37.5 -90.5t37.5 -90.5t90.5 -37.5t90.5 37.5t37.5 90.5t-37.5 90.5t-90.5 37.5zM321 567q-1 -3 -1 -7q0 -20 14 -34t34 -14q29 0 42 26q6 -13 6 -26q0 -26 -19 -45t-45 -19t-45 19t-19 45q0 18 9 32.5
t24 22.5zM703 567q33 -18 33 -55q0 -26 -19 -45t-45 -19t-45 19t-19 45q0 13 6 26q13 -26 42 -26q20 0 34 14t14 34q0 4 -1 7zM384 320v-64h256v64h-256z" />
    <glyph glyph-name="meh-rolling-eyes" unicode="&#xec87;" 
d="M512 864q-172 0 -294 -122t-122 -294t122 -294t294 -122t294 122t122 294t-122 294t-294 122zM512 800q146 0 249 -103t103 -249t-103 -249t-249 -103t-249 103t-103 249t103 249t249 103zM352 640q-53 0 -90.5 -37.5t-37.5 -90.5t37.5 -90.5t90.5 -37.5t90.5 37.5
t37.5 90.5t-37.5 90.5t-90.5 37.5zM672 640q-53 0 -90.5 -37.5t-37.5 -90.5t37.5 -90.5t90.5 -37.5t90.5 37.5t37.5 90.5t-37.5 90.5t-90.5 37.5zM321 567q-1 -3 -1 -7q0 -20 14 -34t34 -14q29 0 42 26q6 -13 6 -26q0 -26 -19 -45t-45 -19t-45 19t-19 45q0 18 9 32.5
t24 22.5zM703 567q33 -18 33 -55q0 -26 -19 -45t-45 -19t-45 19t-19 45q0 13 6 26q13 -26 42 -26q20 0 34 14t14 34q0 4 -1 7zM384 320v-64h256v64h-256z" />
    <glyph glyph-name="meh-solid" unicode="&#xec88;" 
d="M512 832q-159 0 -271.5 -112.5t-112.5 -271.5t112.5 -271.5t271.5 -112.5t271.5 112.5t112.5 271.5t-112.5 271.5t-271.5 112.5zM512 768q133 0 226.5 -93.5t93.5 -226.5t-93.5 -226.5t-226.5 -93.5t-226.5 93.5t-93.5 226.5t93.5 226.5t226.5 93.5zM368 576
q-20 0 -34 -14t-14 -34t14 -34t34 -14t34 14t14 34t-14 34t-34 14zM656 576q-20 0 -34 -14t-14 -34t14 -34t34 -14t34 14t14 34t-14 34t-34 14zM352 320v-64h320v64h-320z" />
    <glyph glyph-name="meh" unicode="&#xec89;" 
d="M512 832q-159 0 -271.5 -112.5t-112.5 -271.5t112.5 -271.5t271.5 -112.5t271.5 112.5t112.5 271.5t-112.5 271.5t-271.5 112.5zM512 768q133 0 226.5 -93.5t93.5 -226.5t-93.5 -226.5t-226.5 -93.5t-226.5 93.5t-93.5 226.5t93.5 226.5t226.5 93.5zM368 576
q-20 0 -34 -14t-14 -34t14 -34t34 -14t34 14t14 34t-14 34t-34 14zM656 576q-20 0 -34 -14t-14 -34t14 -34t34 -14t34 14t14 34t-14 34t-34 14zM352 320v-64h320v64h-320z" />
    <glyph glyph-name="memory-solid" unicode="&#xec8a;" 
d="M64 736v-576h416v32q0 13 9.5 22.5t22.5 9.5t22.5 -9.5t9.5 -22.5v-32h416v576h-896zM128 672h768v-288h-768v288zM192 608v-160h192v160h-192zM416 608v-160h192v160h-192zM640 608v-160h192v160h-192zM256 544h64v-32h-64v32zM480 544h64v-32h-64v32zM704 544h64v-32
h-64v32zM128 320h768v-96h-301q-11 28 -32.5 46t-50.5 18t-50.5 -18t-32.5 -46h-301v96z" />
    <glyph glyph-name="mendeley" unicode="&#xec8b;" 
d="M309 730q-33 0 -62 -12.5t-47 -34t-29.5 -48.5t-10.5 -56t10 -57q15 -77 -1 -116t-67 -40q-43 4 -84 -36q-9 -10 -14 -28t-3.5 -39.5t10 -41.5t28 -35t47.5 -19q22 -3 41.5 4.5t33 21.5t22.5 33t8.5 39.5t-8.5 40.5q-32 70 33 107q54 30 126 16q71 -13 83 -61
q6 -22 -6 -49q-17 -26 -15 -53t15 -49.5t38.5 -36.5t55.5 -12q30 -1 55 12.5t38 36t15 49.5t-16 53q-26 65 38 97q56 28 127 11q71 -16 81 -65q5 -25 -9 -56q-11 -24 -9 -52q4 -41 33 -65.5t67.5 -22.5t66.5 32q8 7 14 20t8.5 29.5t1 33t-7.5 32t-16 25.5q-15 15 -35 22.5
t-42 5.5q-99 2 -69 156q15 34 9.5 71t-22.5 67.5t-51 50t-75 19.5q-34 -1 -60 -14.5t-42 -32.5t-30 -38t-31.5 -32t-38.5 -13t-38.5 13t-32 32t-30.5 38t-42.5 32.5t-60.5 14.5zM513 568q41 0 70.5 -29.5t29.5 -70.5q0 -35 -26.5 -67t-74.5 -32q-32 0 -55.5 16.5t-33.5 38.5
t-10 44q0 41 29 70.5t71 29.5z" />
    <glyph glyph-name="menorah-solid" unicode="&#xec8c;" 
d="M128 800q-32 -65 -32 -96q0 -13 9.5 -22.5t22.5 -9.5t22.5 9.5t9.5 22.5t-8 37t-16 41zM256 800q-32 -65 -32 -96q0 -13 9.5 -22.5t22.5 -9.5t22.5 9.5t9.5 22.5t-8 37t-16 41zM384 800q-32 -65 -32 -96q0 -13 9.5 -22.5t22.5 -9.5t22.5 9.5t9.5 22.5t-8 37t-16 41z
M512 800q-32 -65 -32 -96q0 -13 9.5 -22.5t22.5 -9.5t22.5 9.5t9.5 22.5t-8 37t-16 41zM640 800q-32 -65 -32 -96q0 -13 9.5 -22.5t22.5 -9.5t22.5 9.5t9.5 22.5t-8 37t-16 41zM768 800q-32 -65 -32 -96q0 -13 9.5 -22.5t22.5 -9.5t22.5 9.5t9.5 22.5t-8 37t-16 41zM896 800
q-32 -65 -32 -96q0 -13 9.5 -22.5t22.5 -9.5t22.5 9.5t9.5 22.5t-8 37t-16 41zM96 640q0 -163 111.5 -282t272.5 -132v-66h-160v-64h384v64h-160v66q161 13 272.5 132t111.5 282h-64q0 -137 -92.5 -237.5t-227.5 -112.5v64q108 12 182 94t74 192h-64q0 -84 -55 -146.5
t-137 -74.5v64q55 11 91.5 55.5t36.5 101.5h-64q0 -31 -18 -55.5t-46 -34.5v90h-64v-90q-28 10 -46 34.5t-18 55.5h-64q0 -57 36.5 -101.5t91.5 -55.5v-64q-82 12 -137 74.5t-55 146.5h-64q0 -110 74 -192t182 -94v-64q-135 12 -227.5 112.5t-92.5 237.5h-64z" />
    <glyph glyph-name="mercury-solid" unicode="&#xec8d;" 
d="M352 896q0 -71 54 -119q-67 -31 -108.5 -94t-41.5 -139q0 -97 64.5 -169.5t159.5 -84.5v-98h-128v-64h128v-128h64v128h128v64h-128v98q95 12 159.5 84.5t64.5 169.5q0 76 -41.5 139t-108.5 94q54 48 54 119h-64q0 -40 -28 -68t-68 -28t-68 28t-28 68h-64zM512 736
q80 0 136 -56t56 -136t-56 -136t-136 -56t-136 56t-56 136t56 136t136 56z" />
    <glyph glyph-name="meteor-solid" unicode="&#xec8e;" 
d="M971 909l-325 -213l12 21l52 94l-95 -50q-87 -47 -190 -108q-208 -124 -284 -198q-78 -78 -78.5 -188.5t79.5 -186.5q79 -78 188 -78t185 79q68 68 177 242l97 164l45 79l-84 -34l-26 -10l167 261zM756 691l-140 -219l-54 -85l93 38l30 12l-48 -80q-109 -174 -167 -232
q-58 -60 -140.5 -60.5t-144.5 60.5q-60 58 -60 140.5t61 143.5q71 69 272 189q50 30 90 52l-19 -36l-62 -113l107 71zM320 384q-53 0 -90.5 -37.5t-37.5 -90.5t37.5 -90.5t90.5 -37.5t90.5 37.5t37.5 90.5t-37.5 90.5t-90.5 37.5zM320 320q29 0 46.5 -17.5t17.5 -46.5
t-17.5 -46.5t-46.5 -17.5t-46.5 17.5t-17.5 46.5t17.5 46.5t46.5 17.5z" />
    <glyph glyph-name="microchip-solid" unicode="&#xec8f;" 
d="M224 768v-64h-128v-576h128v-64h64v64h64v-64h64v64h64v-64h64v64h64v-64h64v64h64v-64h64v64h128v576h-128v64h-64v-64h-64v64h-64v-64h-64v64h-64v-64h-64v64h-64v-64h-64v64h-64zM160 640h704v-448h-704v448zM256 576q-13 0 -22.5 -9.5t-9.5 -22.5t9.5 -22.5
t22.5 -9.5t22.5 9.5t9.5 22.5t-9.5 22.5t-22.5 9.5zM384 576q-13 0 -22.5 -9.5t-9.5 -22.5t9.5 -22.5t22.5 -9.5t22.5 9.5t9.5 22.5t-9.5 22.5t-22.5 9.5zM512 576q-13 0 -22.5 -9.5t-9.5 -22.5t9.5 -22.5t22.5 -9.5t22.5 9.5t9.5 22.5t-9.5 22.5t-22.5 9.5zM640 576
q-13 0 -22.5 -9.5t-9.5 -22.5t9.5 -22.5t22.5 -9.5t22.5 9.5t9.5 22.5t-9.5 22.5t-22.5 9.5zM768 576q-13 0 -22.5 -9.5t-9.5 -22.5t9.5 -22.5t22.5 -9.5t22.5 9.5t9.5 22.5t-9.5 22.5t-22.5 9.5zM256 448q-13 0 -22.5 -9.5t-9.5 -22.5t9.5 -22.5t22.5 -9.5t22.5 9.5
t9.5 22.5t-9.5 22.5t-22.5 9.5zM768 448q-13 0 -22.5 -9.5t-9.5 -22.5t9.5 -22.5t22.5 -9.5t22.5 9.5t9.5 22.5t-9.5 22.5t-22.5 9.5zM256 320q-13 0 -22.5 -9.5t-9.5 -22.5t9.5 -22.5t22.5 -9.5t22.5 9.5t9.5 22.5t-9.5 22.5t-22.5 9.5zM384 320q-13 0 -22.5 -9.5
t-9.5 -22.5t9.5 -22.5t22.5 -9.5t22.5 9.5t9.5 22.5t-9.5 22.5t-22.5 9.5zM512 320q-13 0 -22.5 -9.5t-9.5 -22.5t9.5 -22.5t22.5 -9.5t22.5 9.5t9.5 22.5t-9.5 22.5t-22.5 9.5zM640 320q-13 0 -22.5 -9.5t-9.5 -22.5t9.5 -22.5t22.5 -9.5t22.5 9.5t9.5 22.5t-9.5 22.5
t-22.5 9.5zM768 320q-13 0 -22.5 -9.5t-9.5 -22.5t9.5 -22.5t22.5 -9.5t22.5 9.5t9.5 22.5t-9.5 22.5t-22.5 9.5z" />
    <glyph glyph-name="microphone-alt-slash-solid" unicode="&#xec90;" 
d="M119 887l-46 -46l832 -832l46 46l-298 298l46 33q84 10 140.5 73.5t56.5 148.5q0 93 -65.5 158.5t-158.5 65.5q-85 0 -148.5 -57t-73.5 -141l-32 -46zM672 768q67 0 113.5 -46.5t46.5 -113.5q0 -48 -26 -88l-222 222q40 26 88 26zM538 696l222 -222q-40 -26 -88 -26
q-67 0 -113.5 46.5t-46.5 113.5q0 48 26 88zM343 483l-151 -214l-15 -22l18 -19l26 -26l-84 -83l46 -46l82 83l44 -44l23 16l215 151l-46 46l-184 -130l-57 59l129 183z" />
    <glyph glyph-name="microphone-alt-solid" unicode="&#xec91;" 
d="M672 832q-85 0 -148.5 -57t-73.5 -141l-258 -365l-15 -22l18 -19l26 -26l-84 -83l46 -46l82 83l44 -44l23 16l367 258q84 10 140.5 73.5t56.5 148.5q0 93 -65.5 158.5t-158.5 65.5zM672 768q67 0 113.5 -46.5t46.5 -113.5q0 -48 -26 -88l-222 222q40 26 88 26zM538 696
l222 -222q-40 -26 -88 -26q-67 0 -113.5 46.5t-46.5 113.5q0 48 26 88zM460 538q17 -50 54 -87.5t87 -54.5l-284 -201l-57 59z" />
    <glyph glyph-name="microphone-slash-solid" unicode="&#xec92;" 
d="M119 887l-46 -46l832 -832l46 46l-201 201q50 55 50 128v128h-64v-128q0 -47 -31 -83l-45 45q12 17 12 38v384q0 26 -19 45t-45 19h-192q-26 0 -45 -19t-19 -45v-114zM416 768h192v-370l-192 192v178zM224 512v-128q0 -79 56.5 -135.5t135.5 -56.5h64v-64h-128v-64h320
v64h-128v64h64q8 0 24 2l-62 62h-154q-53 0 -90.5 37.5t-37.5 90.5v128h-64zM352 474v-90q0 -26 19 -45t45 -19h90l-64 64h-26v26z" />
    <glyph glyph-name="microphone-solid" unicode="&#xec93;" 
d="M416 832q-26 0 -45 -19t-19 -45v-384q0 -26 19 -45t45 -19h192q26 0 45 19t19 45v384q0 26 -19 45t-45 19h-192zM416 768h192v-384h-192v384zM224 512v-128q0 -79 56.5 -135.5t135.5 -56.5h64v-64h-128v-64h320v64h-128v64h64q79 0 135.5 56.5t56.5 135.5v128h-64v-128
q0 -53 -37.5 -90.5t-90.5 -37.5h-192q-53 0 -90.5 37.5t-37.5 90.5v128h-64z" />
    <glyph glyph-name="microscope-solid" unicode="&#xec94;" 
d="M544 832v-64h128v64h-128zM512 736v-64h-64q-66 0 -113 -47t-47 -113v-134q-28 -10 -46 -34.5t-18 -55.5t18 -55.5t46 -34.5v-70h-64v-64h544v64h-416v70q43 15 58 58h358v64h-358q-15 43 -58 58v134q0 40 28 68t68 28h64v-192h192v320h-192zM576 672h64v-192h-64v192z
M320 320q14 0 23 -9t9 -23t-9 -23t-23 -9t-23 9t-9 23t9 23t23 9z" />
    <glyph glyph-name="microsoft" unicode="&#xec95;" 
d="M160 800v-704h704v704h-704zM224 736h256v-256h-256v256zM544 736h256v-256h-256v256zM224 416h256v-256h-256v256zM544 416h256v-256h-256v256z" />
    <glyph glyph-name="minus-circle-solid" unicode="&#xec96;" 
d="M512 864q-172 0 -294 -122t-122 -294t122 -294t294 -122t294 122t122 294t-122 294t-294 122zM512 800q146 0 249 -103t103 -249t-103 -249t-249 -103t-249 103t-103 249t103 249t249 103zM320 480v-64h384v64h-384z" />
    <glyph glyph-name="minus-solid" unicode="&#xec97;" 
d="M160 480v-64h704v64h-704z" />
    <glyph glyph-name="minus-square-solid" unicode="&#xec98;" 
d="M160 800v-704h704v704h-704zM224 736h576v-576h-576v576zM352 480v-64h320v64h-320z" />
    <glyph glyph-name="minus-square" unicode="&#xec99;" 
d="M160 800v-704h704v704h-704zM224 736h576v-576h-576v576zM352 480v-64h320v64h-320z" />
    <glyph glyph-name="mitten-solid" unicode="&#xec9a;" 
d="M608 864q-105 0 -180.5 -75.5t-75.5 -180.5v-84q-41 25 -89 16.5t-77 -47.5q-32 -42 -24.5 -94.5t49.5 -84.5l1 -1l172 -126v-155h448v169l2 4q5 10 12 31q18 54 18 116v256q0 105 -75.5 180.5t-180.5 75.5zM608 800q79 0 135.5 -56.5t56.5 -135.5v-256q0 -54 -14 -96
q-3 -8 -10 -23q-1 -1 -2 -3v-2l-1 -1l5 -3h-335l-8 6l-185 135q-21 16 -25 42t12 47t42 25t48 -12l39 -27l50 -35v203q0 79 56.5 135.5t135.5 56.5zM448 160h320v-64h-320v64z" />
    <glyph glyph-name="mix" unicode="&#xec9b;" 
d="M160 800v-640q0 -40 28 -68t68 -28t68 28t28 68v384q0 13 9.5 22.5t22.5 9.5t22.5 -9.5t9.5 -22.5v-256q0 -40 28 -68t68 -28t68 28t28 68v192q0 13 9.5 22.5t22.5 9.5t22.5 -9.5t9.5 -22.5v-64q0 -40 28 -68t68 -28t68 28t28 68v384h-704zM224 736h576v-320
q0 -13 -9.5 -22.5t-22.5 -9.5t-22.5 9.5t-9.5 22.5v64q0 40 -28 68t-68 28t-68 -28t-28 -68v-192q0 -13 -9.5 -22.5t-22.5 -9.5t-22.5 9.5t-9.5 22.5v256q0 40 -28 68t-68 28t-68 -28t-28 -68v-384q0 -13 -9.5 -22.5t-22.5 -9.5t-22.5 9.5t-9.5 22.5v576z" />
    <glyph glyph-name="mixcloud" unicode="&#xec9c;" 
d="M411 768q-87 0 -157.5 -51t-98.5 -132q-66 -10 -110.5 -60.5t-44.5 -118.5q0 -75 53.5 -128.5t128.5 -53.5h466q62 0 107 44.5t45 107.5q0 54 -34 95.5t-86 52.5q-10 103 -87 173.5t-182 70.5zM411 704q42 0 80 -16.5t65.5 -44t43.5 -65.5t16 -80q0 -33 -10 -65
q-7 -21 7 -34.5t33 -10.5t25 23q7 21 11 42q24 -9 39 -30.5t15 -48.5q0 -36 -25 -61t-61 -25h-471q-23 0 -44.5 9t-37 24.5t-24.5 37t-9 45.5q0 48 34 81.5t81 33.5q48 0 81 -34q10 -9 21 -10.5t20 4.5t14.5 14.5t4.5 20t-11 21.5q-35 35 -84 48q24 55 75 88t111 33z
M943 576q-20 2 -33 -15.5t0 -36.5q47 -71 47 -156t-47 -156q-11 -17 -1.5 -34.5t29.5 -17.5q17 0 28 15q58 87 58 193q0 52 -15 101t-43 92q-5 6 -11 10t-12 5zM847 522q-20 2 -32.5 -15t0.5 -37q15 -23 23 -49t8 -53q0 -56 -31 -102q-12 -16 -2.5 -33.5t29.5 -17.5
q18 0 28 14q42 62 42 139t-42 139q-4 6 -10 10t-13 5z" />
    <glyph glyph-name="mizuni" unicode="&#xec9d;" 
d="M512 864q-172 0 -294 -122t-122 -294t122 -294t294 -122t294 122t122 294t-122 294t-294 122zM512 800q146 0 249 -103t103 -249t-103 -249t-249 -103t-249 103t-103 249t103 249t249 103zM368 640q-20 0 -34 -14t-14 -34v-336q39 39 96 58v278q0 20 -14 34t-34 14z
M512 640q-20 0 -34 -14t-14 -34v-267q23 4 48 4q13 0 24.5 -1t23.5 -3v267q0 20 -14 34t-34 14zM656 640q-20 0 -34 -14t-14 -34v-278q57 -19 96 -58v336q0 20 -14 34t-34 14z" />
    <glyph glyph-name="mobile-alt-solid" unicode="&#xec9e;" 
d="M352 832q-39 0 -67.5 -28.5t-28.5 -67.5v-576q0 -39 28.5 -67.5t67.5 -28.5h320q39 0 67.5 28.5t28.5 67.5v576q0 39 -28.5 67.5t-67.5 28.5h-320zM352 768h320q13 0 22.5 -9.5t9.5 -22.5v-576q0 -13 -9.5 -22.5t-22.5 -9.5h-320q-13 0 -22.5 9.5t-9.5 22.5v576
q0 13 9.5 22.5t22.5 9.5zM512 224q-13 0 -22.5 -9.5t-9.5 -22.5t9.5 -22.5t22.5 -9.5t22.5 9.5t9.5 22.5t-9.5 22.5t-22.5 9.5z" />
    <glyph glyph-name="mobile-solid" unicode="&#xec9f;" 
d="M352 832q-39 0 -67.5 -28.5t-28.5 -67.5v-576q0 -39 28.5 -67.5t67.5 -28.5h320q39 0 67.5 28.5t28.5 67.5v576q0 39 -28.5 67.5t-67.5 28.5h-320zM352 768h320q13 0 22.5 -9.5t9.5 -22.5v-576q0 -13 -9.5 -22.5t-22.5 -9.5h-320q-13 0 -22.5 9.5t-9.5 22.5v576
q0 13 9.5 22.5t22.5 9.5zM512 224q-13 0 -22.5 -9.5t-9.5 -22.5t9.5 -22.5t22.5 -9.5t22.5 9.5t9.5 22.5t-9.5 22.5t-22.5 9.5z" />
    <glyph glyph-name="modx" unicode="&#xeca0;" 
d="M224 824v-384l59 -38l-159 -242h400l37 55l239 -143v394l-58 36l148 234h-395l-36 -51zM288 712l330 -196l-292 -66l-38 25v237zM529 672h245l-80 -127l-180 107zM645 456l-155 -232h-247l110 166zM714 444l22 -14v-245l-138 82z" />
    <glyph glyph-name="monero" unicode="&#xeca1;" 
d="M512 864q-172 0 -294 -122t-122 -294t122 -294t294 -122t294 122t122 294t-122 294t-294 122zM512 800q146 0 249 -103t103 -249q0 -48 -14 -96h-146v257l-192 -201l-192 201v-257h-146q-14 48 -14 96q0 146 103 249t249 103zM384 449l128 -134l128 134v-161h185
q-22 -43 -54.5 -78t-72.5 -60.5t-88 -39.5t-98 -14q-101 0 -185 52.5t-128 139.5h185v161z" />
    <glyph glyph-name="money-bill-alt-solid" unicode="&#xeca2;" 
d="M64 736v-544h896v544h-896zM192 672h640q0 -27 18.5 -45.5t45.5 -18.5v-288q-27 0 -45.5 -18.5t-18.5 -45.5h-640q0 27 -18.5 45.5t-45.5 18.5v288q27 0 45.5 18.5t18.5 45.5zM480 608q0 -35 -14.5 -49.5t-49.5 -14.5v-64q36 0 64 13v-173h64v288h-64zM272 512
q-20 0 -34 -14t-14 -34t14 -34t34 -14t34 14t14 34t-14 34t-34 14zM752 512q-20 0 -34 -14t-14 -34t14 -34t34 -14t34 14t14 34t-14 34t-34 14z" />
    <glyph glyph-name="money-bill-alt" unicode="&#xeca3;" 
d="M64 736v-544h896v544h-896zM192 672h640q0 -27 18.5 -45.5t45.5 -18.5v-288q-27 0 -45.5 -18.5t-18.5 -45.5h-640q0 27 -18.5 45.5t-45.5 18.5v288q27 0 45.5 18.5t18.5 45.5zM480 608q0 -35 -14.5 -49.5t-49.5 -14.5v-64q36 0 64 13v-173h64v288h-64zM272 512
q-20 0 -34 -14t-14 -34t14 -34t34 -14t34 14t14 34t-14 34t-34 14zM752 512q-20 0 -34 -14t-14 -34t14 -34t34 -14t34 14t14 34t-14 34t-34 14z" />
    <glyph glyph-name="money-bill-solid" unicode="&#xeca4;" 
d="M64 736v-544h896v544h-896zM192 672h640q0 -27 18.5 -45.5t45.5 -18.5v-288q-27 0 -45.5 -18.5t-18.5 -45.5h-640q0 27 -18.5 45.5t-45.5 18.5v288q27 0 45.5 18.5t18.5 45.5zM512 608q-53 0 -90.5 -42t-37.5 -102t37.5 -102t90.5 -42t90.5 42t37.5 102t-37.5 102
t-90.5 42zM512 544q26 0 45 -23.5t19 -56.5t-19 -56.5t-45 -23.5t-45 23.5t-19 56.5t19 56.5t45 23.5zM272 512q-20 0 -34 -14t-14 -34t14 -34t34 -14t34 14t14 34t-14 34t-34 14zM752 512q-20 0 -34 -14t-14 -34t14 -34t34 -14t34 14t14 34t-14 34t-34 14z" />
    <glyph glyph-name="money-bill-wave-alt-solid" unicode="&#xeca5;" 
d="M731 768q-25 -1 -50 -4.5t-44 -7t-44.5 -11t-39 -12t-39.5 -14.5q-35 -12 -54 -18t-49.5 -14t-60.5 -11.5t-62 -3.5q-23 -1 -46 1t-45.5 5.5t-45 9.5t-45.5 14l-42 15v-547l21 -8q84 -29 169 -33q14 -1 27 -1q45 0 92 8.5t74.5 17t75.5 24.5q50 18 77.5 26t74 15.5
t92.5 4.5q37 -1 75 -9t75 -21l43 -15v547l-21 8q-41 15 -84 23.5t-86 9.5q-18 1 -38 1zM733 704h4.5h5h5h4.5h4.5h5h5.5q16 -1 35 -3q7 -26 28.5 -43.5t49.5 -17.5q8 0 16 2v-292q-8 2 -16 2q-29 0 -51.5 -19t-27.5 -47q-15 1 -32 2q-50 2 -102 -6t-83 -17t-82 -27
q-50 -17 -78 -25.5t-74.5 -15.5t-91.5 -5q-17 1 -37 3q-6 27 -27.5 44t-49.5 17q-8 0 -16 -2v292q8 -2 16 -2q30 0 52 19t27 48q36 -3 65 -3q30 0 59 3.5t50.5 7.5t49.5 12t43.5 13t44.5 15q40 15 63.5 22t61.5 14.5t73 8.5zM512 576q0 -35 -14.5 -49.5t-49.5 -14.5v-64
q36 0 64 13v-141h64v256h-64zM752 544q-20 0 -34 -14t-14 -34t14 -34t34 -14t34 14t14 34t-14 34t-34 14zM272 448q-20 0 -34 -14t-14 -34t14 -34t34 -14t34 14t14 34t-14 34t-34 14z" />
    <glyph glyph-name="money-bill-wave-solid" unicode="&#xeca6;" 
d="M731 768q-25 -1 -50 -4.5t-44 -7t-44.5 -11t-39 -12t-39.5 -14.5q-35 -12 -54 -18t-49.5 -14t-60.5 -11.5t-62 -3.5q-23 -1 -46 1t-45.5 5.5t-45 9.5t-45.5 14l-42 15v-547l21 -8q84 -29 169 -33q14 -1 27 -1q45 0 92 8.5t74.5 17t75.5 24.5q50 18 77.5 26t74 15.5
t92.5 4.5q37 -1 75 -9t75 -21l43 -15v547l-21 8q-41 15 -84 23.5t-86 9.5q-18 1 -38 1zM733 704h4.5h5h5h4.5h4.5h5h5.5q16 -1 35 -3q7 -26 28.5 -43.5t49.5 -17.5q8 0 16 2v-292q-8 2 -16 2q-29 0 -51.5 -19t-27.5 -47q-15 1 -32 2q-50 2 -102 -6t-83 -17t-82 -27
q-50 -17 -78 -25.5t-74.5 -15.5t-91.5 -5q-17 1 -37 3q-6 27 -27.5 44t-49.5 17q-8 0 -16 -2v292q8 -2 16 -2q30 0 52 19t27 48q36 -3 65 -3q30 0 59 3.5t50.5 7.5t49.5 12t43.5 13t44.5 15q40 15 63.5 22t61.5 14.5t73 8.5zM512 608q-53 0 -90.5 -47t-37.5 -113t37.5 -113
t90.5 -47t90.5 47t37.5 113t-37.5 113t-90.5 47zM512 544q26 0 45 -28.5t19 -67.5t-19 -67.5t-45 -28.5t-45 28.5t-19 67.5t19 67.5t45 28.5zM752 544q-20 0 -34 -14t-14 -34t14 -34t34 -14t34 14t14 34t-14 34t-34 14zM272 448q-20 0 -34 -14t-14 -34t14 -34t34 -14t34 14
t14 34t-14 34t-34 14z" />
    <glyph glyph-name="money-check-alt-solid" unicode="&#xeca7;" 
d="M64 736v-576h896v576h-896zM128 672h768v-448h-768v448zM192 608v-64h320v64h-320zM704 608v-34q-27 -5 -45.5 -25.5t-18.5 -48.5q0 -40 35 -57l93 -47q0 -12 -12 -12h-40q-12 0 -12 12v20h-64v-20q0 -28 18.5 -48.5t45.5 -25.5v-34h64v34q27 5 45.5 25.5t18.5 48.5
q0 39 -35 57l-93 47q0 12 12 12h40q12 0 12 -12v-20h64v20q0 28 -18.5 48.5t-45.5 25.5v34h-64zM192 512v-64h224v64h-224zM272 416q-23 0 -42 -21q-12 -14 -21 -33q-17 -38 -17 -74h64q0 21 12 48l6 9q5 -7 7 -10q12 -20 16 -25q17 -23 38 -23q16 0 31 11q4 3 15 13
q3 3 8 7q1 -2 22 -11q43 -19 101 -19v64q-45 0 -75 13q-4 2 -13.5 7.5t-18.5 8.5t-21 3q-14 0 -30 -12q-3 -2 -7.5 -7t-5.5 -5l-5 8q-11 18 -21 28q-20 20 -43 20z" />
    <glyph glyph-name="money-check-solid" unicode="&#xeca8;" 
d="M64 736v-576h896v576h-896zM128 672h768v-448h-768v448zM192 608v-64h320v64h-320zM640 608v-160h192v160h-192zM192 512v-64h224v64h-224zM272 416q-23 0 -42 -21q-12 -14 -21 -33q-17 -38 -17 -74h64q0 21 12 48q1 2 2 3.5l2 3t2 2.5q5 -8 7 -10q13 -21 16 -25
q17 -23 38 -23q16 0 31 11q4 3 15 13q3 3 8 7q1 -2 22 -11q43 -19 101 -19v64q-45 0 -75 13q-4 2 -13.5 7.5t-18.5 8.5t-21 3q-14 0 -30 -12q-3 -2 -7.5 -6.5l-5.5 -5.5q-1 1 -2.5 3.5t-2.5 4.5q-11 18 -21 28q-20 20 -43 20zM640 352v-64h192v64h-192z" />
    <glyph glyph-name="monument-solid" unicode="&#xeca9;" 
d="M512 832q-27 0 -45.5 -18.5t-18.5 -45.5t18.5 -45.5t45.5 -18.5t45.5 18.5t18.5 45.5t-18.5 45.5t-45.5 18.5zM384 704v-64h47l-14 -320h-97v-192h-64v-64h512v64h-64v192h-97l-14 320h47v64h-256zM495 640h34l14 -320h-62zM384 256h256v-128h-256v128z" />
    <glyph glyph-name="moon-solid" unicode="&#xecaa;" 
d="M160 800v-64h-64v-64h64v-64h64v64h64v64h-64v64h-64zM649 706l-53 -2q-129 -5 -218.5 -97.5t-89.5 -221.5q0 -132 94 -226t226 -94q129 0 221.5 89.5t97.5 218.5l2 52l-47 -22q-38 -18 -82 -18q-80 0 -136 56t-56 136q0 41 19 81zM556 630q-1 -6 -4.5 -16.5t-5.5 -19.5
t-2 -17q0 -106 75 -181t181 -75q9 0 17.5 2t19.5 5.5t17 4.5q-19 -88 -87 -146t-159 -58q-106 0 -181 75t-75 181q0 91 58 158.5t146 86.5z" />
    <glyph glyph-name="moon" unicode="&#xecab;" 
d="M160 800v-64h-64v-64h64v-64h64v64h64v64h-64v64h-64zM649 706l-53 -2q-129 -5 -218.5 -97.5t-89.5 -221.5q0 -132 94 -226t226 -94q129 0 221.5 89.5t97.5 218.5l2 52l-47 -22q-38 -18 -82 -18q-80 0 -136 56t-56 136q0 41 19 81zM556 630q-1 -6 -4.5 -16.5t-5.5 -19.5
t-2 -17q0 -106 75 -181t181 -75q9 0 17.5 2t19.5 5.5t17 4.5q-19 -88 -87 -146t-159 -58q-106 0 -181 75t-75 181q0 91 58 158.5t146 86.5z" />
    <glyph glyph-name="mortar-pestle-solid" unicode="&#xecac;" 
d="M717 864q-21 -1 -40 -15t-28 -37l-1 -1q-19 -50 -54 -110q-37 3 -82 3q-153 0 -260 -39q-53 -19 -85 -47t-37 -64l-2 -8v-5q0 -21 1 -37v-2q0 -4 1.5 -12t1.5 -11q3 -21 3 -23q12 -81 46 -145q31 -59 79 -100q1 -1 5 -6q64 -64 200 -75q9 -1 14 -1q17 -1 33 -1q26 0 47 2
q1 0 3.5 0.5t3.5 0.5q16 2 29 4q1 0 2.5 0.5t2.5 0.5t2.5 0.5t2.5 0.5q35 7 65 19q14 5 35 16q1 0 6.5 3t8.5 5q22 13 34 21q44 31 81 94q54 92 60 210q1 15 1 37v5l-1 2v4q-5 43 -54 77q-28 20 -72 35q21 25 31 36l3 3l-1 1q39 35 27 78q-9 33 -44 58q-34 25 -68 23z
M720 800q12 1 28 -11q17 -12 20 -23q2 -7 -8 -15l-2 -1l-1 -1q-69 -71 -113.5 -152t-58.5 -146q-37 -3 -73 -3q-3 0 -29 1q65 64 128 156t97 183q2 4 3 6.5t2.5 4t4.5 1.5h2zM512 640q20 0 42 -1q-87 -127 -159 -183q-71 10 -121 28q-44 16 -65 34q-17 14 -17 26v3
q2 10 17 23q21 18 65 34q99 36 238 36zM729 610q51 -16 76 -33q27 -19 27 -33v-2q-1 -10 -17 -24q-21 -18 -65 -34q-41 -15 -95 -24q23 71 74 150zM822 446q-7 -34 -10 -45q-1 -2 -1.5 -5t-1.5 -5q0 -1 -1.5 -3.5t-1.5 -3.5q-11 -30 -27 -56q-30 -51 -62 -75
q-58 -41 -124 -54q-2 0 -5.5 -1t-5.5 -1q-31 -5 -70 -5q-10 0 -29 1q-4 0 -12 1q-23 2 -40 5q-20 4 -28 6t-17 5q-36 12 -64 31q-8 6 -10 8l-1 1q-2 1 -6 5l-8.5 8.5t-9.5 10.5q-21 24 -40 56q-28 48 -42 101q-2 9 -3 14q18 -11 50 -22q107 -39 260 -39t260 39q26 10 50 23z
" />
    <glyph glyph-name="mosque-solid" unicode="&#xecad;" 
d="M206 827l-29 -80l-47 -128l-2 -5v-550h352v96q0 21 6 32q3 6 13 13q8 6 13 10q5 -4 13 -10q10 -7 13 -13q6 -11 6 -32v-96h352v550l-2 6l-49 128l-31 79l-29 -80l-47 -128l-2 -5v-198h-3q-13 108 -107 171q-14 10 -37 23t-29 17q-11 8 -15 12l-1 2v31h-64v-32l-1 -1
q-5 -6 -15 -13q-7 -4 -29.5 -17.5t-36.5 -23.5q-94 -64 -107 -169h-3v198l-2 6l-49 128zM207 644l17 -43v-473h-32v474zM815 644l17 -43v-473h-32v474zM512 583q9 -7 12 -9q10 -7 32.5 -20t33.5 -21q33 -23 53 -49t26 -68h-314q6 42 26 68t53 49q11 8 33.5 21t32.5 20z
M288 352h448v-224h-128v32q0 39 -14 64q-10 18 -31 33q-13 9 -15 12q-4 5 -4 19h-64q0 -14 -4 -19q-2 -3 -15 -12q-21 -15 -31 -33q-14 -25 -14 -64v-32h-128v224z" />
    <glyph glyph-name="motorcycle-solid" unicode="&#xecae;" 
d="M720 768q-34 0 -45 -32h-131v-64h136l10 -32h-114q-89 0 -141 -64h-108q-55 32 -119 32q-31 0 -62.5 -7t-47.5 -13l-16 -7l28 -58q46 21 98 21q31 0 68 -15l-28 -58q-30 9 -56 9q-79 0 -135.5 -56.5t-56.5 -135.5t56.5 -135.5t135.5 -56.5q71 0 124.5 45.5t64.5 114.5
h111q40 0 57 36l35 71q70 32 127 107q12 15 22 31l68 -222l62 18l-36 118q1 0 2.5 0.5t2.5 0.5q53 0 90.5 -37.5t37.5 -90.5t-37.5 -90.5t-90.5 -37.5t-90.5 37.5t-37.5 90.5q0 51 35 88l-20 67q-79 -58 -79 -155q0 -79 56.5 -135.5t135.5 -56.5t135.5 56.5t56.5 135.5
t-56.5 135.5t-135.5 56.5q-10 0 -25 -2l-59 194h52v96h-80zM576 576h128q-18 -33 -44 -67q-58 -76 -111 -95l-13 -4l-5 -12l-39 -78h-300v-64h123q-11 -42 -45 -69t-78 -27q-53 0 -90.5 37.5t-37.5 90.5t37.5 90.5t90.5 37.5q35 0 64 -17.5t46 -46.5h71q-20 56 -68 91l35 69
h125l10 14q3 6 10.5 14t33.5 22t57 14z" />
    <glyph glyph-name="mountain-solid" unicode="&#xecaf;" 
d="M544 863l-29 -53q-98 -179 -209 -379l-61 61l-21 -35q-68 -114 -187 -313l-29 -48h1001l-20 45q-13 31 -30 71t-34.5 81t-31.5 72l-18 43l-66 -66q-44 87 -125.5 247t-111.5 220zM542 726q15 -29 44 -86q9 -18 14 -27.5t12.5 -24.5l14 -28t12.5 -26l-24 -21l-73 63
l-73 -63l-30 26q8 15 45.5 83t57.5 104zM542 491l73 -62l54 47q13 -27 32.5 -65t37.5 -73t32 -64l20 -40l62 62q10 -23 29.5 -68.5t28.5 -67.5h-791q27 44 75 124.5t63 104.5l64 -64l20 38q9 15 31 55.5t34 62.5l62 -52z" />
    <glyph glyph-name="mouse-pointer-solid" unicode="&#xecb0;" 
d="M288 877v-818l53 44l129 108l65 -129l14 -29l29 15l99 51l28 14l-14 29l-59 116l227 28l-46 46l-470 471zM352 722l370 -369l-144 -17l-45 -6l21 -41l66 -128l-42 -22l-69 138l-19 36l-31 -26l-107 -90v525z" />
    <glyph glyph-name="mouse-solid" unicode="&#xecb1;" 
d="M512 832q-132 0 -226 -94t-94 -226v-128q0 -132 94 -226t226 -94t226 94t94 226v128q0 132 -94 226t-226 94zM480 766v-222h-222q11 87 73 149t149 73zM544 766q87 -11 149 -73t73 -149h-222v222zM256 480h512v-96q0 -106 -75 -181t-181 -75t-181 75t-75 181v96z" />
    <glyph glyph-name="mug-hot-solid" unicode="&#xecb2;" 
d="M384 896v-128h64v128h-64zM512 864v-96h64v96h-64zM192 736v-576q0 -39 28.5 -67.5t67.5 -28.5h384q39 0 67.5 28.5t28.5 67.5v160h64q39 0 67.5 28.5t28.5 67.5v96q0 39 -28.5 67.5t-67.5 28.5h-64v128h-576zM256 672h448v-512q0 -13 -9.5 -22.5t-22.5 -9.5h-384
q-13 0 -22.5 9.5t-9.5 22.5v512zM768 544h64q13 0 22.5 -9.5t9.5 -22.5v-96q0 -13 -9.5 -22.5t-22.5 -9.5h-64v160z" />
    <glyph glyph-name="music-solid" unicode="&#xecb3;" 
d="M864 839l-38 -8l-512 -96l-26 -4v-429q-31 18 -64 18q-53 0 -90.5 -37.5t-37.5 -90.5t37.5 -90.5t90.5 -37.5t90.5 37.5t37.5 90.5v358l448 84v-236q-31 18 -64 18q-53 0 -90.5 -37.5t-37.5 -90.5t37.5 -90.5t90.5 -37.5t90.5 37.5t37.5 90.5v551zM800 762v-64l-448 -84
v64zM736 352q27 0 45.5 -18.5t18.5 -45.5t-18.5 -45.5t-45.5 -18.5t-45.5 18.5t-18.5 45.5t18.5 45.5t45.5 18.5zM224 256q27 0 45.5 -18.5t18.5 -45.5t-18.5 -45.5t-45.5 -18.5t-45.5 18.5t-18.5 45.5t18.5 45.5t45.5 18.5z" />
    <glyph glyph-name="napster" unicode="&#xecb4;" 
d="M512 832q-52 0 -101 -15.5t-89 -43.5t-71 -67q-30 11 -51 16l-40 10v-124q-19 -15 -33.5 -34.5t-22.5 -43.5t-8 -50q0 -39 17.5 -72.5t48.5 -56.5q12 -134 112.5 -226.5t237 -92.5t237.5 92.5t113 226.5q20 15 35 34.5t23 44t8 50.5q0 38 -17 71.5t-47 56.5v124l-40 -10
q-21 -5 -51 -16q-47 59 -115 92.5t-146 33.5zM512 768q40 0 78.5 -10.5t70.5 -29.5t59 -45q-30 -14 -57 -30q-34 19 -73 28.5t-78 9.5t-77.5 -9.5t-73.5 -28.5q-26 16 -56 30q85 85 207 85zM224 648q65 -24 119 -59l17 -11l17 11q61 38 135 38t135 -38l17 -11l17 11
q54 35 119 58v-263q0 -47 -14.5 -91t-41.5 -79.5t-62 -62t-79 -41t-91 -14.5q-119 0 -203.5 84.5t-84.5 203.5v264zM334 384h-46q0 -1 0.5 -7t1 -9t1.5 -9.5t3 -11.5t5 -11.5t7.5 -12t11 -11.5t14.5 -10q18 -10 44 -11l104 -3q-13 61 -41.5 78t-104.5 18zM690 384
q-76 -1 -104.5 -18t-41.5 -78q61 1 104 3q26 1 44 11q8 4 14.5 10t11 11.5t7.5 12t5 11.5t3 11.5t1.5 10t1 9t0.5 6.5h-46zM428 256q36 -38 84 -56q48 18 84 56h-168zM448 178q-4 -3 -11 -11l-6 -16q37 -23 81 -23t81 23l-0.5 1.5t-2 5.5t-3.5 8l-11 12q-64 -19 -128 0z" />
    <glyph glyph-name="neos" unicode="&#xecb5;" 
d="M265 800l-73 -54v-618h149l107 78v129l140 -207h109l103 64v608h-149l-107 -77v-126l-135 203h-144zM300 768h91l281 -421v421h96v-544h-105zM266 761l380 -569h91l-50 -32h-79l-160 232l-128 186v-330l-96 -72v554zM640 753v-300l-64 96v157zM352 478l64 -95v-161
l-85 -62h-75l96 72v246z" />
    <glyph glyph-name="network-wired-solid" unicode="&#xecb6;" 
d="M416 832v-64h-128q-39 0 -67.5 -28.5t-28.5 -67.5v-128h-64v-192h192v192h-64v128q0 14 9 23t23 9h128v-64h192v192h-192zM480 768h64v-64h-64v64zM640 768v-64h96q14 0 23 -9t9 -23v-128h-64v-192h192v192h-64v128q0 39 -28.5 67.5t-67.5 28.5h-96zM192 480h64v-64h-64
v64zM768 480h64v-64h-64v64zM192 320v-96q0 -39 28.5 -67.5t67.5 -28.5h128v-64h192v192h-192v-64h-128q-14 0 -23 9t-9 23v96h-64zM768 320v-96q0 -14 -9 -23t-23 -9h-96v-64h96q39 0 67.5 28.5t28.5 67.5v96h-64zM480 192h64v-64h-64v64z" />
    <glyph glyph-name="neuter-solid" unicode="&#xecb7;" 
d="M512 832q-106 0 -181 -75t-75 -181q0 -97 64.5 -169.5t159.5 -84.5v-258h64v258q95 12 159.5 84.5t64.5 169.5q0 106 -75 181t-181 75zM512 768q80 0 136 -56t56 -136t-56 -136t-136 -56t-136 56t-56 136t56 136t136 56z" />
    <glyph glyph-name="newspaper-solid" unicode="&#xecb8;" 
d="M96 800v-576q0 -53 37.5 -90.5t90.5 -37.5h576q53 0 90.5 37.5t37.5 90.5v352h-192v224h-640zM160 736h512v-512q0 -33 18 -64h-466q-29 0 -46.5 17.5t-17.5 46.5v512zM224 672v-160h384v160h-384zM288 608h256v-32h-256v32zM736 512h128v-288q0 -29 -17.5 -46.5
t-46.5 -17.5t-46.5 17.5t-17.5 46.5v288zM224 480v-64h160v64h-160zM448 480v-64h160v64h-160zM224 384v-64h160v64h-160zM448 384v-64h160v64h-160zM224 288v-64h160v64h-160zM448 288v-64h160v64h-160z" />
    <glyph glyph-name="newspaper" unicode="&#xecb9;" 
d="M96 800v-576q0 -53 37.5 -90.5t90.5 -37.5h576q53 0 90.5 37.5t37.5 90.5v352h-192v224h-640zM160 736h512v-512q0 -33 18 -64h-466q-29 0 -46.5 17.5t-17.5 46.5v512zM224 672v-160h384v160h-384zM288 608h256v-32h-256v32zM736 512h128v-288q0 -29 -17.5 -46.5
t-46.5 -17.5t-46.5 17.5t-17.5 46.5v288zM224 480v-64h160v64h-160zM448 480v-64h160v64h-160zM224 384v-64h160v64h-160zM448 384v-64h160v64h-160zM224 288v-64h160v64h-160zM448 288v-64h160v64h-160z" />
    <glyph glyph-name="nimblr" unicode="&#xecba;" 
d="M224 928l1 -576l-1 -16q0 -126 89 -215t215 -89t215 89t89 215t-89 215t-215 89q-66 0 -124.5 -27t-101.5 -75zM528 576q99 0 169.5 -70.5t70.5 -169.5t-70.5 -169.5t-169.5 -70.5t-169.5 70.5t-70.5 169.5t70.5 169.5t169.5 70.5zM432 416q-20 0 -34 -14t-14 -34t14 -34
t34 -14t34 14t14 34t-14 34t-34 14zM624 416q-20 0 -34 -14t-14 -34t14 -34t34 -14t34 14t14 34t-14 34t-34 14z" />
    <glyph glyph-name="node-js" unicode="&#xecbb;" 
d="M511.5 864q-18.5 0 -33.5 -9l-317 -183q-15 -9 -24 -24.5t-9 -33.5v-332q0 -38 33 -58l83 -48q41 -20 73 -20q45 0 70 26t25 73v343q0 9 -10 9h-40q-2 0 -4.5 -1t-3.5 -3t-1 -5v-342q0 -24 -20.5 -35.5t-55.5 2.5l-87 51q-5 2 -5 8v332q0 6 5 9l317 183q5 3 10 0
l317 -183q2 -1 3 -2.5t1.5 -3t0.5 -3.5v-332q0 -6 -5 -8l-317 -184q-5 -3 -10 0l-82 49q-4 2 -7 0q-24 -13 -48 -22q-14 -4 3 -13l105 -63q16 -9 34 -9q8 0 16.5 2.5t16.5 6.5l318 183q33 20 33 58v332q0 39 -33 58l-318 183q-15 9 -33.5 9zM597 608q-68 0 -106.5 -27.5
t-38.5 -75.5t34.5 -69t106.5 -28q38 -4 61.5 -8.5t34 -11t13.5 -12t3 -14.5q0 -26 -22.5 -38t-72.5 -12q-60 0 -82 14.5t-27 48.5q-1 7 -9 7h-41q-9 0 -9 -9q0 -22 7 -41t24.5 -37t52 -28.5t84.5 -10.5t85.5 13t54 37.5t18.5 58.5q0 49 -32.5 69t-111.5 31q-50 6 -72.5 11.5
t-29.5 12t-7 18.5q0 9 3 15.5t10.5 14t25 11.5t43.5 4q20 0 34.5 -2t25.5 -6t18.5 -11t12.5 -16.5t8 -22.5q1 -2 2 -3.5t3 -2.5t4 -1h42l6 3q3 2 2 7q-1 23 -8.5 40.5t-20 31t-31.5 22t-43 13t-55 4.5z" />
    <glyph glyph-name="node" unicode="&#xecbc;" 
d="M682 768q-10 0 -10 -10v-176l-40 24q-4 2 -8 2q-2 0 -4 -0.5t-4 -1.5l-96 -56q-4 -2 -6 -6t-2 -8v-112q0 -9 8 -14l96 -56q4 -2 8 -2t8 2l96 56l4 4t3 4.5t1 5.5v305q0 2 -1 5t-3 5t-4 3l-42 25zM368 608q-2 0 -4 -0.5t-4 -1.5l-96 -56q-4 -2 -6 -6t-2 -8v-112
q0 -9 8 -14l96 -56q8 -4 16 0l96 56q8 5 8 14v112q0 9 -8 14l-96 56q-4 2 -8 2zM880 608q-2 0 -4 -0.5t-4 -1.5l-96 -56l-4 -4t-3 -4.5t-1 -5.5v-112q0 -9 8 -14l93 -56q4 -2 8.5 -2t7.5 2l46 26q2 2 3 4.5t0 4.5t-3 4l-99 58v57l48 28l48 -28v-40q0 -3 2.5 -4.5t5.5 0.5
l48 28q8 5 8 14v30q0 9 -8 14l-96 56q-4 2 -8 2zM112 608q-2 0 -4 -0.5t-4 -1.5l-96 -56q-8 -5 -8 -14v-143q0 -5 4.5 -7.5t9.5 -0.5l42 25q8 5 8 14v84l48 28l48 -28v-84q0 -9 8 -14l42 -25q4 -1 7 -0.5t5 3t2 5.5v143q0 9 -8 14l-96 56q-4 2 -8 2zM624 536l48 -28v-56
l-48 -28l-48 28v56zM880 512l-27 -16v-32l27 -16l27 16v32zM493 384q-5 0 -9 -2l-90 -52q-10 -6 -10 -17v-104q0 -10 10 -16l23 -14q12 -5 21 -5q26 0 26 28v103q0 2 -2 2h-12q-2 0 -2 -2v-103q0 -7 -6 -10t-16 1l-24 14q-2 1 -2 2v104q0 2 2 3l90 52h2l90 -52q2 -1 2 -3
v-104q0 -1 -2 -2l-90 -52q-1 -1 -2 0l-23 14h-3q-6 -4 -13 -7q-4 -1 1 -3l30 -18q4 -3 9 -3t9 3l90 52q10 5 10 16v104q0 11 -10 17l-90 52q-4 2 -9 2zM633 336q-7 0 -12 -5t-5 -12q0 -5 2.5 -9t6.5 -6t8 -2q7 0 12.5 5t5.5 12t-5.5 12t-12.5 5zM633 333q6 0 10.5 -4
t4.5 -10q0 -4 -2 -7.5t-5.5 -5.5t-7.5 -2t-7 2t-5 5.5t-2 7.5q0 6 4 10t10 4zM627 329v-20h4v8h3q2 0 2 -2q0 -1 1 -6h4q-1 1 -1 5q-1 5 -3 5q3 1 3 4.5t-2 4.5t-4 1h-7zM631 326h3q2 0 2 -3t-2 -3h-3v6zM517 310q-19 0 -30 -8t-11 -21q0 -14 10 -20t30 -8q14 -1 21.5 -3
t9 -4t1.5 -6q0 -14 -27 -14q-17 0 -23.5 4t-7.5 14q0 2 -3 2h-11q-3 0 -3 -3q0 -33 47 -33q46 0 46 31q0 9 -5 15t-13 8.5t-23 4.5q-20 3 -25.5 5t-5.5 7q0 13 23 13q14 0 20 -3.5t8 -13.5l1.5 -1.5t1.5 -0.5h11q2 0 2 1q1 1 1 2q-3 32 -45 32z" />
    <glyph glyph-name="not-equal-solid" unicode="&#xecbd;" 
d="M215 791l-46 -46l640 -640l46 46l-169 169h178v64h-242l-128 128h370v64h-434zM160 576v-64h157l-64 64h-93zM160 384v-64h349l-64 64h-285z" />
    <glyph glyph-name="notes-medical-solid" unicode="&#xecbe;" 
d="M512 864q-29 0 -50.5 -18t-32.5 -46h-237v-736h640v736h-237q-11 28 -32.5 46t-50.5 18zM512 800q13 0 22.5 -9.5t9.5 -22.5v-32h96v-64h-256v64h96v32q0 13 9.5 22.5t22.5 9.5zM256 736h64v-128h384v128h64v-608h-512v608zM480 512v-96h-96v-64h96v-96h64v96h96v64h-96
v96h-64z" />
    <glyph glyph-name="npm" unicode="&#xecbf;" 
d="M0 640v-352h288v-64h224v64h512v352h-1024zM57 583h227v-245h-56v188h-57v-188h-114v245zM341 583h228v-245h-114v-57h-114v302zM626 583h341v-245h-57v188h-57v-188h-57v188h-56v-188h-114v245zM455 526v-131h57v131h-57z" />
    <glyph glyph-name="ns8" unicode="&#xecc0;" 
d="M929 639q-54 0 -91 -27t-24 -69q-50 -10 -87.5 -30t-62.5 -47q-8 26 -55 26h-140q-11 0 -15.5 3t-2.5 9q4 15 6 20q3 11 21 11h214l15 50q-239 0 -256 -2q-35 -3 -49 -24q-12 -17 -28 -75q-7 -25 3.5 -35.5t48.5 -10.5h140q9 0 11.5 -2.5t0.5 -7.5q-3 -12 -7 -24
q-2 -5 -7 -8.5t-15 -3.5h-203l-18 -63q223 0 257 4q18 2 30 8v-6t0.5 -6t1.5 -5q4 -25 16.5 -44.5t31.5 -32.5t42 -19q29 -7 61 -2t61 19t54 38t41 54q14 28 17.5 59t-3 58.5t-20.5 51.5q45 9 77.5 29.5t27.5 51.5q-3 20 -22.5 33t-44.5 17q-13 2 -27 2zM917 608
q4 0 7.5 -0.5t6.5 -0.5q19 -4 22 -16.5t-14 -22.5q-18 -10 -55 -16q-4 6 -6.5 12.5t-2.5 15.5t5 14q3 4 7 6.5t9 4t10.5 2.5t10.5 1zM299 585l-54 -181l-88 181h-79l-78 -256h72l50 171l81 -171h91l77 257zM838 496q18 -40 11 -77q-4 -22 -20 -39.5t-37 -25.5t-41 -5
q-37 6 -44.5 39.5t21.5 64.5q32 33 110 43z" />
    <glyph glyph-name="nutritionix" unicode="&#xecc1;" 
d="M320 896q0 -46 10 -82t25.5 -57t34.5 -36t38 -20.5t35 -8.5t25 -2h10q-1 40 -14 73.5t-29 52t-37.5 33t-32 19t-19.5 6.5q26 -2 48.5 -12.5t38.5 -25.5t29 -33t21 -35.5t13 -31.5t8 -23l2 -9q20 28 42 47t39 26t30.5 10t21.5 2l7 -1q-24 -1 -45 -11.5t-33 -24.5
t-20.5 -28t-11.5 -24l-3 -10q36 -8 62 -1.5t43 22.5t27.5 33t14.5 30l4 12q-30 11 -55.5 13t-43 -3.5t-32 -14.5t-22.5 -20.5t-14 -21t-8 -16.5l-2 -6q4 36 -6 66t-27 48t-41.5 31.5t-45 19.5t-43.5 9.5t-31 4t-13 0.5zM512 672q-82 0 -153.5 -22.5t-128.5 -63.5
q-70 -118 -70 -234q0 -140 56 -235q55 -40 133.5 -62.5t162.5 -22.5t162.5 22.5t133.5 62.5q56 95 56 235q0 116 -70 234q-117 86 -282 86zM512 630q71 0 138.5 -15t120.5 -42q3 -8 6 -14.5t5.5 -14t4 -13t3.5 -14t3 -13.5t3.5 -16t3.5 -16q-143 27 -288 27t-288 -27
q16 73 29 101q112 57 259 57zM334 448q19 0 32.5 -13.5t13.5 -32.5t-13.5 -32.5t-32.5 -13.5q-12 0 -23 6t-17 16.5t-6 23t6 23.5t17 17t23 6zM453 448q7 0 14 -2.5t13 -6.5t10 -9.5t6.5 -13t2.5 -14.5q0 -19 -13.5 -32.5t-32.5 -13.5q-13 0 -23.5 6t-16.5 16.5t-6 23
t6 23.5t16.5 17t23.5 6zM571 448q19 0 32.5 -13.5t13.5 -32.5q0 -13 -6 -23.5t-16.5 -16.5t-23 -6t-23.5 6t-17 16.5t-6 23.5q0 19 13.5 32.5t32.5 13.5zM690 448q9 0 17.5 -3.5t15 -10t10 -15t3.5 -17.5q0 -19 -13.5 -32.5t-32.5 -13.5q-13 0 -23.5 6t-16.5 16.5t-6 23.5
q0 19 13.5 32.5t32.5 13.5zM334 334q19 0 32.5 -13.5t13.5 -33.5q0 -19 -13.5 -32t-32.5 -13q-12 0 -23 6t-17 16.5t-6 23t6 23t17 17t23 6.5zM453 334q9 0 17.5 -4t15 -10t10 -14.5t3.5 -18.5q0 -19 -13.5 -32t-32.5 -13q-13 0 -23.5 6t-16.5 16.5t-6 22.5q0 20 13.5 33.5
t32.5 13.5zM571 334q19 0 32.5 -13.5t13.5 -33.5q0 -19 -13.5 -32t-32.5 -13q-12 0 -23 6t-17 16.5t-6 23t6 23t17 17t23 6.5zM690 334q19 0 32.5 -13.5t13.5 -33.5q0 -9 -3.5 -17.5t-10 -14.5t-15 -9.5t-17.5 -3.5q-13 0 -23.5 6t-16.5 16.5t-6 22.5q0 7 1.5 13t4.5 11t7 9
t9.5 7t11.5 5t12 2zM334 220q19 0 32.5 -13.5t13.5 -32.5t-13.5 -32.5t-32.5 -13.5q-12 0 -23 6t-17 16.5t-6 23.5q0 19 13.5 32.5t32.5 13.5zM453 220q19 0 32.5 -13.5t13.5 -32.5q0 -13 -6 -23.5t-17 -16.5t-23 -6q-19 0 -32.5 13.5t-13.5 32.5t13.5 32.5t32.5 13.5z
M571 220q13 0 23.5 -6t16.5 -16.5t6 -23.5q0 -19 -13.5 -32.5t-32.5 -13.5q-12 0 -23 6t-17 16.5t-6 23.5q0 19 13.5 32.5t32.5 13.5zM690 220q19 0 32.5 -13.5t13.5 -32.5t-13.5 -32.5t-32.5 -13.5t-32.5 13.5t-13.5 32.5q0 13 6 23.5t16.5 16.5t23.5 6z" />
    <glyph glyph-name="object-group-solid" unicode="&#xecc2;" 
d="M160 800v-128h32v-448h-32v-128h128v32h448v-32h128v128h-32v448h32v128h-128v-32h-448v32h-128zM288 704h448v-32h32v-448h-32v-32h-448v32h-32v448h32v32zM320 640v-256h128v-128h256v256h-128v128h-256zM384 576h128v-128h-128v128zM576 448h64v-128h-128v64h64v64z
" />
    <glyph glyph-name="object-group" unicode="&#xecc3;" 
d="M160 800v-128h32v-448h-32v-128h128v32h448v-32h128v128h-32v448h32v128h-128v-32h-448v32h-128zM288 704h448v-32h32v-448h-32v-32h-448v32h-32v448h32v32zM320 640v-256h128v-128h256v256h-128v128h-256zM384 576h128v-128h-128v128zM576 448h64v-128h-128v64h64v64z
" />
    <glyph glyph-name="object-ungroup-solid" unicode="&#xecc4;" 
d="M160 800v-128h32v-320h-32v-128h128v32h64v-64h-32v-128h128v32h320v-32h128v128h-32v320h32v128h-128v-32h-64v64h32v128h-128v-32h-320v32h-128zM288 704h320v-32h32v-320h-32v-32h-320v32h-32v320h32v32zM704 544h64v-32h32v-320h-32v-32h-320v32h-32v64h192v-32h128
v128h-32v192z" />
    <glyph glyph-name="object-ungroup" unicode="&#xecc5;" 
d="M160 800v-128h32v-320h-32v-128h128v32h64v-64h-32v-128h128v32h320v-32h128v128h-32v320h32v128h-128v-32h-64v64h32v128h-128v-32h-320v32h-128zM288 704h320v-32h32v-320h-32v-32h-320v32h-32v320h32v32zM704 544h64v-32h32v-320h-32v-32h-320v32h-32v64h192v-32h128
v128h-32v192z" />
    <glyph glyph-name="odnoklassniki-square" unicode="&#xecc6;" 
d="M160 800v-704h704v704h-704zM224 736h576v-576h-576v576zM512 672q-46 0 -79 -33t-33 -79t33 -79t79 -33t79 33t33 79t-33 79t-79 33zM512 608q20 0 34 -14t14 -34t-14 -34t-34 -14t-34 14t-14 34t14 34t34 14zM411.5 448q-13.5 -2 -21.5 -13q-3 -5 -5 -11t-1 -12
t4.5 -12t8.5 -10q33 -24 75 -33l-79 -78q-9 -10 -9 -23t9.5 -22.5t22.5 -9.5t23 9l73 74l73 -74q10 -9 23 -9t22.5 9.5t9.5 22.5t-9 23l-78 78q41 9 74 33q7 6 10.5 13.5t2.5 16t-6 15.5q-8 11 -21.5 13t-23.5 -6q-22 -17 -49.5 -23t-55 0t-49.5 23q-10 8 -23.5 6z" />
    <glyph glyph-name="odnoklassniki" unicode="&#xecc7;" 
d="M480 694q31 0 53 -22.5t22 -53.5t-22 -53t-53 -22t-53 22t-22 53t22 53.5t53 22.5zM480 437q75 0 128.5 53t53.5 128t-53.5 128.5t-128.5 53.5t-128.5 -53.5t-53.5 -128.5t53.5 -128t128.5 -53zM554 288q56 13 105 44q19 12 23.5 33.5t-7 40t-33 23.5t-40.5 -7
q-56 -35 -122 -35t-122 35q-19 12 -40.5 7t-33 -23.5t-7 -40t23.5 -33.5q49 -31 105 -44l-101 -101q-16 -16 -16 -38t16 -37q16 -16 37.5 -16t37.5 16l100 99l100 -99q15 -16 37 -16t38 15.5t16 37.5t-16 38z" />
    <glyph glyph-name="oil-can-solid" unicode="&#xecc8;" 
d="M352 672v-64h64v-64h-174l-55 82l-10 14h-145v-182l160 -64v-234h465l9 14l278 402h48v64h-107l-8 -6l-205 -154v64h-192v64h64v64h-192zM96 576h46l50 -75v-37l-96 38v74zM825 514l-201 -290h-368v256h352v-128l51 38zM944 448q-48 -86 -48 -112q0 -20 14 -34t34 -14
t34 14t14 34q0 12 -12 40t-24 50z" />
    <glyph glyph-name="old-republic" unicode="&#xecc9;" 
d="M529 864h-37q-12 -1 -13 -1l-7 -0.5t-11 -1.5q-1 0 -4 -0.5t-5 -0.5t-4 -0.5t-5.5 -1t-6.5 -1t-6 -1.5q-44 -9 -82 -26q-10 -4 -19.5 -8.5t-19.5 -10.5q-72 -40 -123 -105q-29 -36 -49 -78l-2.5 -5t-2.5 -5.5t-2 -4.5q-17 -38 -26 -81q0 -1 -0.5 -3t-0.5 -3.5t-0.5 -3
t-0.5 -3t-0.5 -3.5t-0.5 -4q-1 -2 -1 -4t-0.5 -5t-0.5 -5t-0.5 -4.5t-0.5 -6t-1 -5.5q0 -8 -1 -17q0 -31 1 -48q0 -3 0.5 -6.5l1 -7t0.5 -6.5q0 -2 0.5 -4t0.5 -4t1 -4q1 -7 1.5 -11t2 -9.5t2.5 -10.5q5 -23 13 -45q38 -109 128 -182q26 -22 53 -38q4 -2 11 -6
q22 -12 51 -24q24 -9 43 -13q8 -2 21 -5q4 -1 21 -4q3 -1 8 -1.5t6 -0.5q7 -1 16 -2q15 -1 35 -1q19 0 33 1q8 1 27 3q11 2 23 4q15 3 34 9q4 1 18 6q12 4 31 12q26 11 50 26t46 32q35 29 63.5 65.5t48.5 77.5q21 43 31 90q1 3 2 7t1 6t1 7t1 6q1 2 1 4.5t0.5 5t0.5 4.5
q1 7 2 17t1 25q0 27 -1 42q-1 10 -2 19q-1 4 -1.5 8t-1.5 8q-2 16 -6 32t-9 32l-6 16t-7 16q-1 2 -1.5 4t-1.5 3t-1.5 3t-1.5 3q-15 33 -36 62t-46 55q-17 17 -36.5 32t-40.5 28t-43 23q-30 14 -60 22q-23 7 -39 9q-12 2 -15 3q-21 2 -25 3q-9 0 -18 1zM506 832q20 0 38 -1
q2 0 6 -0.5t7.5 -1t6.5 -0.5q7 -1 13.5 -2t13.5 -2.5t14 -3.5q20 -5 39.5 -12t38 -16t36 -20t33.5 -24q46 -37 79 -86q23 -34 39 -74q18 -46 24 -96q0 -1 0.5 -8.5t0.5 -11.5q2 -39 -2 -70q-2 -23 -10 -52q-9 -34 -24 -65q-2 -5 -5 -11t-7 -12q-8 -14 -16 -26
q-11 -16 -16 -22q-32 -41 -72 -71q-58 -43 -127 -62q-4 -1 -21 -5q-3 -1 -19 -4q-3 -1 -7 -1.5t-8.5 -1t-6.5 -0.5q-35 -4 -72 -1q-6 1 -15 2q-10 1 -20 2.5t-19.5 4t-19.5 5.5q-8 2 -26 8q-6 3 -13 5.5t-13 5.5l-12 6q-54 27 -96 67q-5 6 -10.5 11.5t-11 12t-10.5 12.5
t-10 12.5t-9 13.5q-35 52 -52 113q-1 5 -5 24q-5 22 -6 36q-2 15 -2 37q0 26 2 46q3 22 8 44q12 51 37 97t62 83l5 5l7 7q12 11 25 22q6 4 22 15q24 17 52 30q11 5 22.5 9.5t23 8.5t23.5 7q10 2 19.5 4t17.5 3q27 4 48 4zM402 774q-41 -13 -72 -33q-18 -12 -35 -28
q-28 -29 -44 -64q-2 -4 -3.5 -8l-3 -8t-2.5 -8t-2.5 -8t-2.5 -8q-5 -19 -7 -39t-1 -40q0 -6 2 -22q4 -29 14 -51q1 -2 2 -4.5l2 -5t2 -3.5l5 -10q13 -24 28 -41q12 -13 27 -24q12 -9 28 -16q28 -12 54 -12q2 0 5 1v8v3v4v4t-1 3v14v15v6v6v9v9v10.5v10.5q0 12 -1 15
q-3 9 -10 19q-4 5 -11 12q-4 4 -13 11t-12 10q-6 5 -11 10t-9.5 11l-9 12t-8.5 12q-18 32 -19 66q0 13 2 24q3 19 12 37q10 21 28 42q11 12 24 22t27 19q3 1 5.5 2.5t5.5 3zM624 774q1 0 2.5 -1t3.5 -2t3 -2q11 -6 21 -13t19.5 -15t17.5 -17q15 -16 24 -32q8 -15 12 -28
q6 -20 6 -39v-4v-4.5t-0.5 -4.5t-1 -4.5t-0.5 -4.5q-1 -5 -2.5 -10.5t-3 -10.5t-3.5 -10q-11 -25 -32 -47q-11 -12 -25 -24q-21 -17 -30 -30q-3 -6 -5 -12q0 -2 -1 -15v-8.5v-9v-8.5v-5.5v-6.5v-17v-18v-9v-10l-0.5 -5t0.5 -6h9l18 2q32 6 59 26q25 18 44 46q9 13 18 32
q7 14 13 36q7 29 7 58q0 15 -1 22q-1 14 -3.5 27.5t-6 27t-9.5 25.5q0 1 -6 14q-5 11 -11.5 21t-14.5 19l-16 18q-26 25 -60 42q-13 6 -32 13q-9 3 -13 4zM460 670q-1 -1 -2.5 -2t-2.5 -3l-8 -10t-7 -10t-6 -11q-6 -11 -9 -20q-8 -18 -12 -38q-2 -10 -2 -14q1 -1 2 -1h6
q12 -4 23 -15q10 -9 19 -23q12 -19 16 -37q3 -10 6 -29q1 -20 2 -33v-7v-7v-12v-7v-8v-7q0 -2 -0.5 -5.5t-0.5 -4.5q0 -12 -3 -53q-1 -2 -1 -4v-4t-0.5 -4t-0.5 -4t-1 -4q-5 -36 -7 -47q-4 -17 -9 -34t-8 -22q-2 -4 -4 -5q-2 1 -4 4q-4 6 -6 11q-1 3 -3.5 7.5t-2.5 5.5
q-4 8 -10 16q-9 12 -19 16q-8 4 -19 1q-7 -2 -11 -2q-14 -2 -18 -2h-25h-6.5h-7.5t-7.5 0.5t-8.5 1.5q-19 3 -42 18q-23 16 -48 41q-3 3 -7.5 8t-7.5 7q1 -2 3 -5.5t3 -4.5q12 -22 18 -32q22 -35 43 -57q12 -11 21 -17q18 -13 37 -15q17 -2 30 2q12 3 23 8q8 4 18 10
q-5 -7 -11 -12q-12 -12 -26 -19q-15 -7 -32 -10q2 -2 9 -7q20 -13 42 -23q8 -4 16.5 -7.5t17 -6t17.5 -4.5q30 -7 56 -9q7 -1 25 -1h23q57 4 111 26q14 6 26.5 13t25.5 15l5 5q-5 0 -7 1q-10 2 -21 9q-11 6 -23 17q-9 8 -15 14q9 -6 17 -10q10 -5 13 -6q2 -1 4 -1.5
t4.5 -1.5t4.5 -1.5t4 -0.5q12 -2 23 -0.5t21 6.5q19 7 38 24q13 12 22 25q16 21 30 46l3 5.5t4 8.5q5 10 7 16q-1 -1 -3 -3.5t-3 -3.5q-5 -7 -11 -13l-12 -12t-13 -11t-14 -9q-12 -8 -26 -14q-19 -8 -42 -10q-8 -1 -18 -1q-6 1 -19 3q-23 4 -33 3q-7 -1 -15 -4q-6 -3 -10 -6
l-4 -6q-6 -11 -11 -20.5t-10 -19.5l-1 -1l-2 -3q-1 -2 -3 -1l-1 1q-7 6 -10 12q-10 15 -18 38q-3 10 -6 24q-4 13 -9 45q-1 4 -1.5 11t-1.5 10v4.5t-0.5 5.5t-0.5 5q0 3 -0.5 6t-0.5 6t-1 6q0 8 -1 18v3v4v-10t-1 -10v-13.5v-16.5v-9.5v-10.5v-8.5v-9.5v-9.5v-11v-9.5v-10
v-10v-6t-0.5 -6.5t-0.5 -5.5v-14v-16v-10.5v-9.5q0 -10 -1 -11q-2 -5 -4 -9t-5 -4t-6 2q-2 2 -5 8q-2 5 -3 7v7v179v180q1 8 -7 15q-1 1 -2.5 2t-3.5 2l-3 1.5t-3.5 1.5t-2.5 2q-8 4 -9 5q-6 5 -12 12q-12 17 -15 36v5.5v6.5q0 4 1 8t2 9q4 12 12 22q2 2 3 4zM509 662h-2
q0 -2 -0.5 -4.5t-1.5 -5t-1.5 -5t-1 -5.5t-1.5 -5v-2h-8.5h-8.5h-13h-13v-2q2 -1 5.5 -2t4.5 -1q2 -1 4.5 -1.5t5.5 -1.5t5 -2q6 -2 7 -2v-3q-2 -1 -5 -2h-2l-6 -2l-6 -2t-5 -2q-1 0 -3.5 -1t-3.5 -1q-1 -1 -1 -2h4.5h4.5h12.5h12.5h2q5 0 7 -1q0 -1 1 -4l1 -3
q0 -3 1.5 -9.5t2.5 -9.5h2v81zM517 662v-82q1 1 2 1q1 2 1.5 5.5t1.5 6.5t1 6q1 1 1 3l1 5q2 0 8 1h13.5h12.5h9q0 1 -0.5 1.5t-1.5 0.5q-5 2 -14 5t-11 3q-1 1 -2.5 1.5t-2.5 0.5q0 2 1 3t2 1q14 4 19 6q1 0 3 0.5t3.5 1t3.5 1.5l-1 2h-29h-6.5h-6.5q0 2 -1 5v2
q-1 4 -2.5 10.5t-2.5 9.5h-2zM211 609l-6 -11l-8 -18t-7.5 -19t-5.5 -19q-4 -13 -6 -29q-1 -3 -1.5 -8t-0.5 -6q-2 -11 -2 -31q0 -14 2 -28q2 -10 2 -11q0 -2 0.5 -4.5t1.5 -5.5t1 -5q2 -6 5 -20q4 -12 11 -28q15 -33 37 -57q4 -5 14 -13q17 -15 37 -24q6 -3 19 -8
q26 -9 50 -9q13 1 21 2q16 3 34 10q1 2 0 4q-2 11 -4 15q-6 20 -17 32q-9 10 -22 14q-3 1 -10 2.5t-9 1.5q-14 4 -26 9q-4 1 -16 7q-14 8 -26 18q-15 13 -34 36q-9 11 -17 29q-21 43 -24 97q-1 21 1 39q2 21 6 38zM815 609l2 -8t1.5 -8l1 -8l1 -8t1.5 -8q1 -12 0 -33
q0 -13 -2 -31q-2 -12 -3 -15q-1 -4 -2 -9t-2 -8l-3 -9q-11 -33 -28 -57q-6 -8 -17 -19q-1 -2 -7 -8q-21 -21 -47 -33q-15 -7 -35 -11q-17 -4 -19 -5q-8 -4 -14 -8q-9 -8 -16 -20q-6 -13 -9 -28q-1 -6 -1 -8q2 0 6 -2q2 -1 4 -1q18 -7 39 -9q15 0 32 2q14 3 30 9q16 7 30 15
q32 20 54 53q19 30 30 70q3 9 5 18q5 28 5 48v9q-2 49 -22 99q-3 7 -10 22q-3 7 -5 9z" />
    <glyph glyph-name="om-solid" unicode="&#xecca;" 
d="M928 348q0 -23 -3.5 -50.5t-15.5 -62t-30 -61.5t-50.5 -45.5t-73.5 -18.5q-40 0 -73 13t-53.5 33t-34.5 43t-18.5 43.5t-1.5 34.5q1 0 4 -6t5.5 -10t8 -11.5t12.5 -13t16 -12.5t21.5 -12t27.5 -9.5t34.5 -7t41.5 -2.5q29 0 52 9t37.5 22.5t25 30t15.5 33.5t8 30.5t3 22.5
l1 9q0 4 -1 11.5t-6 26.5t-13 33.5t-26 26.5t-42 12q-29 0 -52 -17t-38.5 -41.5t-31.5 -49t-39 -41.5t-52 -17q-15 0 -27.5 3t-21 7.5t-14.5 9t-11 9.5l-7 7q6 -19 6.5 -42.5t-4 -50t-18 -51.5t-33.5 -45t-53 -32.5t-74 -12.5q-50 0 -90 14.5t-64 38t-41 51.5t-24 56.5
t-10.5 52t-3.5 37.5v15q2 -7 6 -18t21 -39t40 -49.5t66 -39t96 -17.5q27 0 49 4.5t35.5 13t22.5 18t13.5 21t6.5 20.5t2 18q0 10 -3 20t-11.5 21.5t-22 20t-36.5 14.5t-52 6l-23 106q31 -10 68 -10q34 0 47.5 17.5t13.5 42.5q0 14 -8.5 26t-26 20t-40.5 8q-21 0 -42.5 -8
t-37.5 -19t-28.5 -22.5t-19.5 -19.5l-7 -8l-58 108q2 3 6.5 8t19.5 17t32.5 21t46 16.5t58.5 7.5q39 0 71 -14.5t50.5 -37t28 -46t9.5 -44.5q0 -83 -71 -121q21 -9 34 -19.5t17 -17t11.5 -10.5t21.5 -4q16 0 29 4.5t21 11.5t16.5 18t13.5 20.5t12.5 24.5t13.5 25
q55 85 142 85q42 0 74.5 -16t51.5 -39.5t31 -54t16.5 -55.5t4.5 -48zM646 577q20 0 41 4t36.5 10.5t27.5 12.5t19 11l6 4l-61 108q-2 -2 -5 -6t-15 -14.5t-25.5 -18.5t-35 -14t-44.5 -6t-47 7.5t-41.5 18.5t-32 22t-22.5 19l-7 8q1 -7 4 -18t18 -40t35.5 -50.5t60 -39.5
t88.5 -18zM657 748l-61 66l-68 -60l61 -70z" />
    <glyph glyph-name="opencart" unicode="&#xeccb;" 
d="M32 792q34 -65 81.5 -107t110.5 -63.5t123.5 -29.5t145.5 -10q18 0 58 -0.5t70 -1t70.5 -1.5t70 -5t56.5 -9.5t41 -15.5t14 -23q0 -20 -43.5 -70.5t-87 -98t-43.5 -59.5q121 102 188 162q58 52 81.5 79t23.5 52q0 12 -9.5 21t-29 15.5t-41.5 11t-56.5 7t-64.5 4
t-73.5 1.5h-75t-79 -0.5t-76.5 -0.5q-167 0 -270.5 33t-184.5 109zM284 239q-28 0 -48 -19.5t-20 -47.5t20 -48t48 -20t47.5 20t19.5 48t-19.5 47.5t-47.5 19.5zM596 239q-28 0 -47.5 -19.5t-19.5 -47.5t19.5 -48t47.5 -20t48 20t20 48t-20 47.5t-48 19.5z" />
    <glyph glyph-name="openid" unicode="&#xeccc;" 
d="M608 832l-128 -62v-630q-122 16 -190 67.5t-68 123.5q0 66 63.5 117.5t162.5 69.5v80q-152 -19 -252 -94t-100 -173q0 -105 104 -180t280 -90l128 60v711zM640 596v-81q62 -13 112 -42l-68 -38l244 -53l-17 180l-65 -36q-86 52 -206 70z" />
    <glyph glyph-name="opera" unicode="&#xeccd;" 
d="M511 832q-152 0 -251.5 -107.5t-99.5 -273.5q0 -101 43.5 -189t125 -143t182.5 -55q102 0 184 55t125.5 143t43.5 189q0 167 -101 274t-252 107zM511 768q128 0 208.5 -86t80.5 -231q0 -132 -81.5 -227.5t-207.5 -95.5q-125 0 -206 95.5t-81 227.5q0 145 79.5 231
t207.5 86zM511 758q-51 0 -85 -34q-28 -28 -44 -77q-23 -71 -23 -190q0 -121 20 -190q15 -54 43 -83q36 -38 89 -38q52 0 89 38q28 29 44 83q21 71 21 190q0 120 -25 193q-17 50 -45 76q-34 32 -84 32zM511 694q24 0 40 -15q18 -17 29 -49q21 -61 21 -173q0 -111 -18 -172
q-12 -39 -29 -57t-43 -18q-25 0 -42 18q-18 19 -29 57q-17 59 -17 172q0 108 20 170q11 33 29 51q16 16 39 16z" />
    <glyph glyph-name="optin-monster" unicode="&#xecce;" 
d="M539 856q-30 0 -52.5 -14t-30.5 -28l-8 -15q34 21 77 21q33 0 62.5 -14.5t42.5 -29.5l14 -14q0 4 -1 10t-6.5 22.5t-15.5 29t-31.5 22.5t-50.5 10zM476 783q-44 0 -82 -4t-54 -8l-15 -4q52 -8 89 -25q-62 -9 -113 -34.5t-71 -47.5l-21 -21l15 2.5t28 3.5t27 1
q-22 -13 -42 -32h-6q-25 2 -29 9q-3 4 -4 14q-1 19 -6.5 27t-19.5 8q-16 0 -33 -29t-17 -62q0 -47 20.5 -72.5t82.5 -27.5v-4q31 -2 39 -20q4 -1 11 -6l-26 -3q-10 12 -31 12q-1 5 -6.5 11t-12.5 6q-8 0 -15 -6.5t-10 -12.5l-2 -7q-4 -1 -11 -4.5t-18 -17.5t-11 -33
q0 -34 24 -54t49 -20v-33q-12 11 -22 11q-7 0 -20 -2q-8 9 -16 9q-10 0 -11 -17q-16 -7 -26 -14q-6 3 -10 3q-6 0 -6 -9v-8q-8 -9 -16 -22q-6 2 -9 2q-5 0 -5 -4q0 -6 5 -17q-3 -9 -3 -19q0 -30 38 -64t80 -34q11 0 31 8.5t30 28.5q140 -5 263 -5q18 0 270 6
q10 -20 30.5 -29t31.5 -9q42 0 80 34t38 64q0 9 -3 18q5 11 5 18q0 4 -5 4q-3 0 -9 -2q-8 13 -16 22v8q0 9 -6 9q-4 0 -10 -3q-10 7 -26 14q-1 17 -11 17q-8 0 -16 -9q-6 1 -20 1q-11 0 -22 -10v33q25 0 49 20t24 54q0 19 -10 33t-20 18l-10 4q-9 26 -27 26q-7 0 -12.5 -6
t-6.5 -11q-23 0 -32 -13q-2 0 -11.5 1t-16.5 2q7 5 14 7q5 8 15 12.5t17 5.5l7 1v5q64 1 84.5 27t20.5 74q0 33 -16.5 61.5t-32.5 28.5q-15 0 -20.5 -8t-6.5 -26q-1 -11 -5 -16t-9 -6t-19 -2q-8 -1 -25 1q-74 168 -294 168zM514 751q49 0 84 -35t35 -84t-35 -84t-84 -35
t-84.5 35t-35.5 84t35.5 84t84.5 35zM516 669q-18 0 -31 -5q24 -9 24 -34q0 -15 -11 -25.5t-27 -10.5q-23 0 -34 18q-2 -8 -2 -17q0 -31 24 -53t57 -22t57 22t24 53t-23.5 52.5t-57.5 21.5zM175 650q7 0 8 -19l3 -12q-10 -5 -18 -11.5t-13 -13.5t-8 -12t-6 -12t-3 -8
q0 21 3 37.5t7.5 25.5t10 15t9.5 8t7 2zM851 649q6 0 13.5 -5.5t16 -27t8.5 -54.5q-1 1 -3 6.5t-4 9t-6 10t-8.5 11.5t-12 10.5t-15.5 9.5q3 7 3 12q1 18 8 18zM193 608q10 -8 21 -9q-21 -30 -21 -64l3 -34q-40 6 -50 30q4 62 47 77zM834 608q42 -15 46 -77
q-4 -11 -16.5 -18.5t-23.5 -9.5l-10 -2q3 0 3 34q0 15 -5.5 31t-10.5 24l-5 9q12 1 22 9zM777 597h20q24 -30 24 -58l-3 -41l-20 -1q-3 52 -21 100zM252 594l-3 -16l-1 -2q-15 -35 -21 -79l-18 1q-4 13 -4 41q0 21 16 45q12 5 31 10zM568 482l42 -1q2 -16 2 -32
q0 -15 -1 -23q-6 -12 -16 -13q-10 0 -16 -1t-11 -1q-42 0 -44 16l-4 54q33 1 48 1zM498 481q3 -25 3 -49q0 -9 -1 -23q-1 -11 -6 -13q-8 -3 -38 -3q-37 0 -43.5 6t-6.5 35l3 46q82 0 89 1zM632 481q57 -2 62 -3q0 -23 -11 -56.5t-32 -33.5q-3 0 -5.5 4t-3.5 11t-2 13
t-1.5 15t-0.5 11zM388 480q-3 -46 -4 -54q0 -4 -1 -10.5t-1.5 -11t-0.5 -5.5q0 -10 -8 -10q-6 0 -15 4.5t-19.5 21t-10.5 40.5l2 22zM313 433q6 -29 26.5 -45.5t35.5 -16.5q16 0 19 23q10 -18 56 -18q32 0 49 5.5t19 8.5t3 10q11 -7 42 -7q27 0 43.5 3.5t19.5 7.5l2 4
q6 -39 24 -39q17 0 31 15.5t19 31.5l6 16h3t6 -0.5t7 -0.5h4q10 -1 22 -2q-2 -4 -2 -5q0 -4 3 -7.5t7 -4.5l3 -2q-4 -3 -7 -7q-59 -54 -73 -66q-79 -67 -175 -94q-6 1 -30 11.5t-59.5 29.5t-58.5 38q-45 36 -85 76l-10 12q13 6 13 14q0 1 -2 5zM757 376l12 -6l1 -5
q-9 -3 -9 -12q0 -5 6 -9t12 -6l6 -1q3 -6 11 -10v-67q-22 -36 -24 -82q-52 36 -177 77q41 21 79 49q32 24 83 72zM266 375q48 -44 80 -71q24 -20 76 -48q-85 -27 -170 -77q-3 45 -24 81v67l11 10q24 4 24 16q0 4 -2.5 7t-4.5 4l-2 1l1 5q6 1 11 5zM182 258q26 0 43.5 -35.5
t17.5 -56.5q0 -23 -20 -37.5t-41 -14.5q-26 0 -60 23.5t-34 37.5q0 29 31 56t63 27zM842 258q32 0 63 -27t31 -56q0 -14 -34 -37.5t-60 -23.5q-21 0 -41 14.5t-20 37.5q0 21 17.5 56.5t43.5 35.5zM183 245q-18 0 -49 -23.5t-31 -43.5q0 -11 9 -17.5t15.5 -7.5t11.5 -1
q16 0 44.5 18.5t28.5 39.5q0 9 -7.5 22t-21.5 13zM574 245q65 -24 93 -36l86 -47q-137 -5 -241 -5l-239 6q57 39 176 80q44 -22 58 -24q29 9 67 26zM841 245q-14 0 -21.5 -13t-7.5 -22q0 -21 28.5 -39.5t44.5 -18.5q5 0 11.5 1t15.5 7.5t9 17.5q0 20 -31 43.5t-49 23.5z
M218 180q-10 0 -29 -14.5t-19 -24.5q0 -16 24 -16q7 0 22 10t15 24q-1 21 -13 21zM806 180q-5 0 -8.5 -5t-3.5 -11l-1 -5q0 -14 15 -24t22 -10q24 0 24 16q0 10 -19 24.5t-29 14.5z" />
    <glyph glyph-name="orcid" unicode="&#xeccf;" 
d="M512 864q-172 0 -294 -122t-122 -294t122 -294t294 -122t294 122t122 294t-122 294t-294 122zM512 800q146 0 249 -103t103 -249t-103 -249t-249 -103t-249 103t-103 249t103 249t249 103zM352 704q-13 0 -22.5 -9.5t-9.5 -22.5t9.5 -22.5t22.5 -9.5t22.5 9.5t9.5 22.5
t-9.5 22.5t-22.5 9.5zM320 608v-352h64v352h-64zM448 608v-352h144q73 0 124.5 51.5t51.5 124.5t-51.5 124.5t-124.5 51.5h-144zM512 544h80q47 0 79.5 -32.5t32.5 -79.5t-32.5 -79.5t-79.5 -32.5h-80v224z" />
    <glyph glyph-name="osi" unicode="&#xecd0;" 
d="M512 832q-159 0 -271.5 -112.5t-112.5 -271.5q0 -121 69 -219t179 -140l30 -12l12 30l79 210l11 30l-30 11q-28 10 -45 34.5t-17 55.5q0 40 28 68t68 28t68 -28t28 -68q0 -31 -17 -55.5t-45 -34.5l-30 -11l11 -30l79 -210l12 -30l30 12q110 42 179 140t69 219
q0 159 -112.5 271.5t-271.5 112.5zM512 768q133 0 226.5 -93.5t93.5 -226.5q0 -92 -49 -167.5t-130 -115.5l-58 153q77 50 77 130q0 66 -47 113t-113 47t-113 -47t-47 -113q0 -80 77 -130l-58 -153q-81 40 -130 115.5t-49 167.5q0 133 93.5 226.5t226.5 93.5z" />
    <glyph glyph-name="otter-solid" unicode="&#xecd1;" 
d="M464 800q-59 0 -113 -16t-96 -45t-66 -67q-25 -1 -46.5 -14t-34 -34.5t-12.5 -47.5q0 -47 32 -90v-390h64v414l-9 9q-9 11 -16 28t-7 29q0 13 9.5 22.5t22.5 9.5q3 0 7 -1l25 -6l12 23q15 33 49.5 58.5t81 39.5t97.5 14h96q31 0 60.5 -5.5t55.5 -15t48 -23.5t38.5 -31
t25.5 -37l12 -23l25 6q4 1 7 1q13 0 22.5 -9.5t9.5 -22.5q0 -8 -3 -18t-8.5 -21t-11.5 -18l-9 -9v-414h64v390q9 12 16.5 27.5t11.5 32t4 30.5q0 26 -12.5 47.5t-34 34.5t-46.5 14q-37 58 -111.5 93t-163.5 35h-96zM320 576q-13 0 -22.5 -14t-9.5 -34t9.5 -34t22.5 -14
t22.5 14t9.5 34t-9.5 34t-22.5 14zM704 576q-13 0 -22.5 -14t-9.5 -34t9.5 -34t22.5 -14t22.5 14t9.5 34t-9.5 34t-22.5 14zM512 543q-46 0 -84 -31q-113 -91 -124 -101l-4 -2q-44 -37 -44 -89q0 -53 37.5 -90.5t90.5 -37.5q74 0 128 32q54 -32 128 -32q53 0 90.5 37.5
t37.5 90.5q0 52 -44 89l-4 2q-13 11 -124 101q-19 16 -40.5 23.5t-43.5 7.5zM512 480q23 0 44 -17q113 -92 123 -101l4 -3q21 -17 21 -39q0 -26 -19 -45t-45 -19q-68 0 -108 32l-19 15q4 49 31 49q64 0 64 23q0 17 -28 29t-68 12q-26 0 -48 -5.5t-35 -15t-13 -20.5
q0 -23 64 -23q27 0 31 -49l-19 -15q-40 -32 -108 -32q-26 0 -45 19t-19 45q0 22 21 39l4 3q11 10 123 101q21 17 44 17z" />
    <glyph glyph-name="outdent-solid" unicode="&#xecd2;" 
d="M96 736v-64h416v64h-416zM96 608v-64h640v64h-640zM800 608v-320l160 160zM96 480v-64h640v64h-640zM96 352v-64h640v64h-640zM96 224v-64h416v64h-416z" />
    <glyph glyph-name="page4" unicode="&#xecd3;" 
d="M512 864q-172 0 -294 -122t-122 -294q0 -138 83 -249l458 646q-61 19 -125 19zM672 832v-576h209q23 44 35 92.5t12 99.5q0 128 -71 232t-185 152zM706 704h23v-55h21v50h24v-50h23v55h23v-80h-114v80zM752 601h60q21 -37 6.5 -73.5t-55.5 -36.5q-31 0 -46.5 21t-14 46.5
t14.5 40.5l20 -18q-8 -8 -10 -19t1 -20.5t12.5 -16.5t22.5 -7q24 0 33.5 19.5t-2.5 39.5h-18v-21h-24v45zM512 591l-237 -335h237v335zM820 486v-28l-24 -10v-45l24 -9v-28l-114 49v21zM775 439l-36 -14l36 -14v28zM741 374q35 0 35 -43v-18h44v-25h-114v42q0 44 35 44z
M741 348q-14 0 -14 -22v-13h28v17q0 18 -14 18zM185 192q58 -74 143.5 -117t183.5 -43v160h-327zM672 192v-128q49 21 91.5 53.5t75.5 74.5h-167z" />
    <glyph glyph-name="pagelines" unicode="&#xecd4;" 
d="M483 832q-4 -6 -10.5 -17t-14 -47t-2.5 -73q10 -73 91 -120q2 -49 -3 -93q-39 96 -109 121q-31 9 -61 8t-52 -7l-22 -7q8 -57 44 -96.5t94 -49.5q56 -10 102 1q-12 -83 -44 -154q-5 17 -14.5 33t-27 35.5t-47 33.5t-66.5 18q-28 3 -58.5 -5t-46.5 -17l-17 -10l5 -15
t16.5 -32.5t30 -41.5t46 -33t63.5 -15q58 0 102 20l-3 -6q-92 -167 -272 -167v-32q102 0 177.5 49.5t122.5 134.5l10 20q53 -40 150 -40q29 0 55 12t42.5 29t29 34.5t18.5 29.5l5 12q-6 5 -16.5 12t-45 19t-69.5 12q-86 0 -157 -94q31 72 43 153q14 -3 35.5 -4.5t66 8.5
t71.5 37q28 28 41 58t12 46l-1 17q-12 2 -30.5 3t-62 -8t-68.5 -32q-40 -36 -62 -112q8 60 5 126q27 50 27 104q0 45 -31 80.5t-61 48.5z" />
    <glyph glyph-name="pager-solid" unicode="&#xecd5;" 
d="M224 736q-39 0 -67.5 -28.5t-28.5 -67.5v-384q0 -39 28.5 -67.5t67.5 -28.5h576q39 0 67.5 28.5t28.5 67.5v384q0 39 -28.5 67.5t-67.5 28.5h-576zM224 672h576q14 0 23 -9t9 -23v-384q0 -14 -9 -23t-23 -9h-576q-14 0 -23 9t-9 23v384q0 14 9 23t23 9zM256 608v-192h384
v192h-384zM704 608v-64h64v64h-64zM704 480v-64h64v64h-64zM256 352v-64h384v64h-384zM704 352v-64h64v64h-64z" />
    <glyph glyph-name="paint-brush-solid" unicode="&#xecd6;" 
d="M794 831q-43 0 -74 -31l-406 -400l-20 -19q-39 -7 -65 -36q-8 -8 -13.5 -17t-10 -21.5t-6.5 -19t-6.5 -23.5t-5.5 -22q-20 -77 -54 -128l-32 -50h59q148 0 250 102l1 1q27 28 34 70l16 15l406 401q30 30 30 73.5t-30 73.5q-31 31 -73 31zM794 768q15 0 28 -13
q28 -29 0 -57l-289 -286l-58 58l290 285q13 13 29 13zM429 425l58 -58l-48 -47l-58 58zM319 319q27 -1 47 -19q19 -17 19 -43t-20 -46q-60 -60 -149 -77q21 46 33 91q18 67 27 77q16 18 43 17z" />
    <glyph glyph-name="paint-roller-solid" unicode="&#xecd7;" 
d="M160 832v-256h576v256h-576zM224 768h448v-128h-448v128zM768 736v-64h32v-136l-320 -96v-88h-64v-288h192v288h-64v40l320 96v248h-96zM480 288h64v-160h-64v160z" />
    <glyph glyph-name="palette-solid" unicode="&#xecd8;" 
d="M499 865q-23 -1 -53 -5q-128 -21 -222.5 -112.5t-120.5 -219.5q-14 -65 -3 -139q5 -36 34 -59t65.5 -22t63.5 28q30 30 68.5 30t68.5 -30t30 -68.5t-30 -68.5q-27 -27 -28 -63.5t22 -65.5t60 -34q71 -11 138 3q127 24 219 119.5t113 224.5q18 119 -28.5 226.5t-139 175
t-207.5 78.5q-27 3 -50 2zM500 801q23 1 43 -1q151 -14 246 -133.5t72 -274.5q-18 -108 -96 -189t-186 -101q-57 -12 -117 -3q-20 2 -26.5 20t9.5 34q47 47 47 114t-47 114t-114 47t-114 -47q-16 -16 -34 -9.5t-20 26.5q-9 60 3 117q22 108 102.5 186t187.5 96q21 3 44 4z
M448 736q-27 0 -45.5 -18.5t-18.5 -45.5t18.5 -45.5t45.5 -18.5t45.5 18.5t18.5 45.5t-18.5 45.5t-45.5 18.5zM672 672q-27 0 -45.5 -18.5t-18.5 -45.5t18.5 -45.5t45.5 -18.5t45.5 18.5t18.5 45.5t-18.5 45.5t-45.5 18.5zM288 608q-27 0 -45.5 -18.5t-18.5 -45.5
t18.5 -45.5t45.5 -18.5t45.5 18.5t18.5 45.5t-18.5 45.5t-45.5 18.5zM736 448q-27 0 -45.5 -18.5t-18.5 -45.5t18.5 -45.5t45.5 -18.5t45.5 18.5t18.5 45.5t-18.5 45.5t-45.5 18.5zM608 288q-27 0 -45.5 -18.5t-18.5 -45.5t18.5 -45.5t45.5 -18.5t45.5 18.5t18.5 45.5
t-18.5 45.5t-45.5 18.5z" />
    <glyph glyph-name="palfed" unicode="&#xecd9;" 
d="M448 832q-13 0 -22.5 -9.5t-9.5 -22.5v-32q-106 0 -181 -37.5t-75 -90.5h-32q-26 0 -45 -19t-19 -45t19 -45t45 -19h44l45 -360q1 -12 7 -22.5t14.5 -17.5t19.5 -11.5t22 -4.5h464q11 0 22 4.5t19.5 11.5t14.5 17.5t7 22.5l45 360h44q26 0 45 19t19 45t-19 45t-45 19h-32
q0 53 -75 90.5t-181 37.5v32q0 13 -9.5 22.5t-22.5 9.5h-128zM490 698q22 -2 26 -25q44 15 84 13.5t70 -15t48 -43.5t18 -72q0 -61 -35 -118.5t-88 -87.5t-101 -18v-163q1 -21 -8 -31q-6 -7 -15 -9t-18 1t-16.5 14.5t-9.5 29.5q-8 86 2 394q-33 -23 -64 -59t-31 -64
q1 -6 1 -8l1.5 0.5t3.5 1t4 1.5t4.5 1.5t5.5 0.5q24 0 26 -24q3 -27 -23 -42q-12 -6 -27 -6q-26 0 -43 19.5t-17 50.5q0 51 46.5 109.5t117.5 95.5q2 34 17 46q10 8 21 7zM593 618q-35 0 -76 -15q-4 -119 -5 -195q2 -10 24 -10q47 0 90 47t43 109q0 65 -76 64z" />
    <glyph glyph-name="pallet-solid" unicode="&#xecda;" 
d="M196 800l-4 -27l-64 -448v-229h192v64h384v-64h192v229l-64 448l-4 27h-632zM252 736h66l-28 -384h-93zM382 736h98v-384h-126zM544 736h98l28 -384h-126v384zM706 736h66l55 -384h-93zM192 288h640v-128h-64v64h-512v-64h-64v128z" />
    <glyph glyph-name="paper-plane-solid" unicode="&#xecdb;" 
d="M115 789l14 -60l62 -281l-62 -281l-14 -60l57 23l777 318l-73 30l-704 288zM204 683l497 -203h-452zM249 416h452l-497 -203z" />
    <glyph glyph-name="paper-plane" unicode="&#xecdc;" 
d="M115 789l14 -60l62 -281l-62 -281l-14 -60l57 23l777 318l-73 30l-704 288zM204 683l497 -203h-452zM249 416h452l-497 -203z" />
    <glyph glyph-name="paperclip-solid" unicode="&#xecdd;" 
d="M672 832q-71 0 -122 -51l-300 -300q-71 -71 -71 -172.5t71 -172.5t172.5 -71t172.5 71l200 200l-45 45l-200 -200q-53 -53 -127.5 -53t-127.5 53t-53 127.5t53 127.5l300 300q32 32 77.5 32t77.5 -32t32 -77.5t-32 -77.5l-300 -300q-12 -12 -27.5 -12t-27.5 12t-12 27.5
t12 27.5l275 275l-45 45l-275 -275q-30 -30 -30 -72.5t30 -72.5t72.5 -30t72.5 30l300 300q51 51 51 122.5t-51 122.5t-123 51z" />
    <glyph glyph-name="parachute-box-solid" unicode="&#xecde;" 
d="M896 448q0 159 -112.5 271.5t-271.5 112.5t-271.5 -112.5t-112.5 -271.5v-14l256 -224v-146h256v146l256 224v14zM512 756q75 -81 92 -233q-41 21 -92 21t-92 -21q17 152 92 233zM355 435l77 -179h-4l-225 197q26 27 69 27q57 0 83 -45zM501 256l-81 188q32 36 92 36
t92 -36l-81 -188h-22zM592 256l77 180l4 6t9 10.5t15.5 13t23 10t31.5 4.5q42 0 69 -27l-225 -197h-4zM821 530q-31 14 -69 14q-47 0 -84 -22q-14 140 -77 236q56 -15 103 -47.5t79.5 -79t47.5 -101.5zM433 758q-63 -96 -77 -236q-37 22 -84 22q-38 0 -69 -14
q22 83 84 144.5t146 83.5zM576 128h-128v64h128v-64z" />
    <glyph glyph-name="paragraph-solid" unicode="&#xecdf;" 
d="M384 800q-79 0 -135.5 -56.5t-56.5 -135.5t56.5 -135.5t135.5 -56.5h128v-320h64v640h64v-640h64v640h64v64h-384zM384 736h128v-256h-128q-53 0 -90.5 37.5t-37.5 90.5t37.5 90.5t90.5 37.5z" />
    <glyph glyph-name="parking-solid" unicode="&#xece0;" 
d="M192 800v-704h640v704h-640zM256 736h512v-576h-512v576zM384 640v-384h64v96h96q39 0 67.5 28.5t28.5 67.5v96q0 39 -28.5 67.5t-67.5 28.5h-160zM448 576h96q14 0 23 -9t9 -23v-96q0 -14 -9 -23t-23 -9h-96v160z" />
    <glyph glyph-name="passport-solid" unicode="&#xece1;" 
d="M192 864v-832h640v832h-640zM256 800h512v-704h-512v704zM512 704q-79 0 -135.5 -56.5t-56.5 -135.5t56.5 -135.5t135.5 -56.5t135.5 56.5t56.5 135.5t-56.5 135.5t-135.5 56.5zM534 637q25 -4 43 -15l2 -23l-15 6l-12 -10l2 -29l31 9l38 -12l-10 -17l-23 14l-25 -4
l-24 -18l-14 -42l27 -22q29 5 30 5l12 -26l-16 -49q-32 -20 -68 -20q-5 0 -22 3l-6 10l15 56l-57 43h-53l-4 8q0 1 -0.5 4t-0.5 4q0 7 2 20l27 21l57 27l-9 37l25 5l11 -16l43 8zM418 425h10l19 -23q-17 10 -29 23zM320 256v-64h384v64h-384z" />
    <glyph glyph-name="pastafarianism-solid" unicode="&#xece2;" 
d="M352 832q-40 0 -68 -28t-28 -68q0 -8 1.5 -15.5t3.5 -14.5t5.5 -13.5t8 -12.5t9.5 -11.5t11 -9.5t12.5 -7.5t14.5 -6.5q3 -47 17 -82q-45 -24 -75 -54q-3 -3 -9 -10q0 -1 -1.5 -2t-2.5 -2t-1 -3q-4 -4 -7 -10q-12 3 -19.5 12.5t-18.5 31.5q-9 18 -15.5 28t-19.5 24.5
t-31.5 22t-42.5 7.5v-64q18 0 28 -9.5t23 -36.5q6 -11 9.5 -17.5t11 -17.5t15 -18t18.5 -14t23 -10v-2.5v-2.5q0 -45 30 -81q-6 -20 -23 -33.5t-39 -13.5q-26 0 -45 19t-19 45h-64q0 -53 37.5 -90.5t90.5 -37.5q37 0 68 20t47 53q23 -9 45 -9q4 0 16 2l-6 -28q-4 -22 -7 -33
t-10.5 -27t-17.5 -23t-28 -13t-43 -6v-64q29 0 52.5 6t39.5 14t29 22.5t20.5 26t13.5 30t8 28.5t6 27q4 21 8 34q35 -28 79 -28q22 0 42 7t37 21q4 -13 8 -34q4 -17 6 -27t8 -28.5t13.5 -30t20.5 -26t29 -22.5t39.5 -14t52.5 -6v64q-25 0 -43 6t-28 13t-17.5 23t-10.5 27
t-7 33l-6 28q13 -2 16 -2q22 0 45 9q16 -33 47 -53t68 -20q53 0 90.5 37.5t37.5 90.5h-64q0 -17 -8.5 -32t-23.5 -23.5t-32 -8.5q-22 0 -39 13.5t-22 33.5q29 36 29 81v2.5v2.5q20 5 36.5 20t23.5 26.5t17 30.5q13 27 23 36.5t28 9.5v64q-24 0 -42.5 -7.5t-31.5 -22
t-19.5 -24.5t-15.5 -28q-11 -22 -18.5 -31.5t-19.5 -12.5q-3 6 -7 10l1 1q-1 1 -3.5 3t-2.5 3q-6 7 -9 10q-30 30 -75 54q6 13 9.5 29t5 28.5t3.5 24.5q28 10 46.5 35t18.5 56q0 40 -28 68t-68 28t-68 -28t-28 -68q0 -30 17.5 -54.5t44.5 -35.5q0 -5 -1 -10.5t-2 -12t-2 -12
t-2.5 -12t-3.5 -11.5q-29 10 -58.5 15t-56.5 5q-55 0 -115 -20q-8 24 -11 58q18 7 32 20.5t22 31.5t8 38q0 40 -28 68t-68 28zM352 768q13 0 22.5 -9.5t9.5 -22.5t-9.5 -22.5t-22.5 -9.5t-22.5 9.5t-9.5 22.5t9.5 22.5t22.5 9.5zM672 768q13 0 22.5 -9.5t9.5 -22.5
t-9.5 -22.5t-22.5 -9.5t-22.5 9.5t-9.5 22.5t9.5 22.5t22.5 9.5zM512 544q7 0 13.5 -0.5t13.5 -1t14 -2t14 -2.5t14 -3l14 -4l14 -4q-20 -12 -34.5 -28.5t-22.5 -38t-8 -44.5q0 -37 20 -68q-9 -13 -22.5 -20.5t-29.5 -7.5q-33 0 -52 28q20 31 20 68q0 35 -17.5 64.5
t-47.5 46.5q51 17 97 17zM352 480q26 0 45 -19t19 -45t-19 -45t-45 -19t-45 19t-19 45q0 22 14 40l7 7q19 17 43 17zM672 480q12 0 23 -4.5t20 -12.5l7 -7q14 -18 14 -40q0 -17 -8.5 -32t-23.5 -23.5t-32 -8.5q-26 0 -45 19t-19 45q0 17 8.5 32t23.5 23.5t32 8.5z" />
    <glyph glyph-name="paste-solid" unicode="&#xece3;" 
d="M480 864q-29 0 -50.5 -18t-32.5 -46h-237v-736h256v-64h448v512h-64v288h-237q-11 28 -32.5 46t-50.5 18zM480 800q13 0 22.5 -9.5t9.5 -22.5v-32h96v-64h-256v64h96v32q0 13 9.5 22.5t22.5 9.5zM224 736h64v-128h384v128h64v-224h-320v-384h-192v608zM480 448h320v-384
h-320v384z" />
    <glyph glyph-name="patreon" unicode="&#xece4;" 
d="M128 832v-768h224v768h-224zM688 832q-112 0 -192 -80t-80 -192t80 -192t192 -80t192 80t80 192t-80 192t-192 80zM192 768h96v-640h-96v640zM688 768q86 0 147 -61t61 -147t-61 -147t-147 -61t-147 61t-61 147t61 147t147 61z" />
    <glyph glyph-name="pause-circle-solid" unicode="&#xece5;" 
d="M512 832q-159 0 -271.5 -112.5t-112.5 -271.5t112.5 -271.5t271.5 -112.5t271.5 112.5t112.5 271.5t-112.5 271.5t-271.5 112.5zM512 768q133 0 226.5 -93.5t93.5 -226.5t-93.5 -226.5t-226.5 -93.5t-226.5 93.5t-93.5 226.5t93.5 226.5t226.5 93.5zM384 608v-320h64v320
h-64zM576 608v-320h64v320h-64z" />
    <glyph glyph-name="pause-circle" unicode="&#xece6;" 
d="M512 832q-159 0 -271.5 -112.5t-112.5 -271.5t112.5 -271.5t271.5 -112.5t271.5 112.5t112.5 271.5t-112.5 271.5t-271.5 112.5zM512 768q133 0 226.5 -93.5t93.5 -226.5t-93.5 -226.5t-226.5 -93.5t-226.5 93.5t-93.5 226.5t93.5 226.5t226.5 93.5zM384 608v-320h64v320
h-64zM576 608v-320h64v320h-64z" />
    <glyph glyph-name="pause-solid" unicode="&#xece7;" 
d="M320 768v-640h64v640h-64zM640 768v-640h64v640h-64z" />
    <glyph glyph-name="paw-solid" unicode="&#xece8;" 
d="M400 800q-50 0 -83 -46q-29 -40 -29 -98t29 -98q33 -46 83 -46t83 46q29 40 29 98t-29 98q-33 46 -83 46zM512 656q0 -58 29 -98q33 -46 83 -46t83 46q29 40 29 98t-29 98q-33 46 -83 46t-83 -46q-29 -40 -29 -98zM400 736q17 0 31 -19q17 -24 17 -61t-17 -61
q-14 -19 -31 -19t-31 19q-17 24 -17 61t17 61q14 19 31 19zM624 736q17 0 31 -19q17 -24 17 -61t-17 -61q-14 -19 -31 -19t-31 19q-17 24 -17 61t17 61q14 19 31 19zM240 576q-50 0 -83 -46q-29 -40 -29 -98t29 -98q33 -46 83 -46t83 46q29 40 29 98t-29 98q-33 46 -83 46z
M784 576q-50 0 -83 -46q-29 -40 -29 -98t29 -98q33 -46 83 -46t83 46q29 40 29 98t-29 98q-33 46 -83 46zM240 512q17 0 31 -19q17 -24 17 -61t-17 -61q-14 -19 -31 -19t-31 19q-17 24 -17 61t17 61q14 19 31 19zM784 512q17 0 31 -19q17 -24 17 -61t-17 -61
q-14 -19 -31 -19t-31 19q-17 24 -17 61t17 61q14 19 31 19zM512 448q-56 0 -87 -52q-5 -9 -12 -21.5t-11.5 -20t-8.5 -11.5q-2 -2 -11.5 -6.5t-26.5 -12t-30 -14.5q-29 -15 -46 -36q-23 -28 -23 -66q0 -46 33 -79t79 -33q26 0 85 17l59 15q31 -7 59 -15q59 -17 85 -17
q46 0 79 33t33 79q0 37 -23 65q-16 19 -46 35q-13 7 -30 15t-26.5 13t-11.5 7q-3 3 -7.5 10.5t-11 20.5t-12.5 22q-31 52 -88 52zM512 384q15 0 20 -4t13 -17q3 -4 9 -17.5t13.5 -26t17.5 -22.5q12 -12 26.5 -20t32 -14.5t25.5 -10.5q19 -10 27 -20t8 -24q0 -20 -14 -34
t-34 -14q-14 0 -67 15q-60 17 -77 17t-77 -17q-53 -15 -67 -15q-20 0 -34 14t-14 34q0 16 8 26q7 9 27 19q7 4 24.5 10t32.5 14t27 20q10 10 18 23t13.5 26.5t8.5 17.5q4 7 6 10t6 6t8.5 3.5t12.5 0.5z" />
    <glyph glyph-name="paypal" unicode="&#xece9;" 
d="M285 800l-6 -25l-118 -544l-9 -39h156l-19 -89l-9 -39h223l5 26l33 154h86q92 0 162.5 55.5t90.5 148.5q21 96 -32 160q-36 43 -95 58q-10 47 -41 79q-53 55 -134 55h-293zM337 736h241q54 0 88 -35q38 -40 23 -111q-16 -73 -67 -113.5t-123 -40.5h-138l-5 -25l-33 -155
h-91zM418 689l-6 -25l-33 -148l-9 -39h113q42 0 75.5 27.5t45.5 69.5v2q11 45 -13 78q-26 35 -71 35h-102zM469 625h51q13 0 19 -8q7 -10 3 -27q-4 -19 -23 -34t-36 -15h-33zM755 597q29 -12 44 -30q32 -39 18 -105q-16 -73 -67 -113.5t-123 -40.5h-138l-5 -25l-33 -155h-91
l15 64l5 26l33 154h86q92 0 162.5 55.5t90.5 148.5q1 5 3 21z" />
    <glyph glyph-name="peace-solid" unicode="&#xecea;" 
d="M512 864q-172 0 -294 -122t-122 -294t122 -294t294 -122t294 122t122 294t-122 294t-294 122zM480 798v-335l-262 -207q-58 87 -58 192q0 137 92.5 237.5t227.5 112.5zM544 798q135 -12 227.5 -112.5t92.5 -237.5q0 -105 -58 -193l-262 208v335zM480 382v-284
q-131 11 -222 107zM544 382l222 -177q-91 -96 -222 -107v284z" />
    <glyph glyph-name="pen-alt-solid" unicode="&#xeceb;" 
d="M613 864q-40 0 -66 -30q-40 -40 -68 -114q-10 -27 -19 -44q-24 28 -60 28q-33 0 -56.5 -23.5t-23.5 -56.5t23.5 -56.5t56.5 -23.5q34 0 59 28l2 -2l-292 -291l-9 -10v-127l-32 -33l45 -45l33 32h127l10 9l531 532q28 28 28 67t-28 67l-39 39q-28 28 -67 28q-35 0 -63 -25
l-23 22q-29 29 -69 29zM614 800q13 0 23 -10l22 -22l-196 -195q48 51 76 124q10 26 13.5 35t14.5 26.5t25 31.5l2 2q7 8 20 8zM768 775q12 0 22 -10l39 -39q22 -22 0 -44l-29 -28l-82 82l25 25l3 4q10 10 22 10zM672 690l82 -82l-242 -242l-82 82zM400 640q16 0 16 -16
t-16 -16t-16 16t16 16zM384 402l82 -82l-160 -160h-82v82z" />
    <glyph glyph-name="pen-fancy-solid" unicode="&#xecec;" 
d="M762 831q-57 0 -97 -40l-297 -297l-175 -67l-17 -7l-3 -18l-45 -301l-6 -43l43 6l319 48l7 17l63 166l16 15l288 288q39 39 40 93.5t-36 94.5l-4 5q-40 40 -96 40zM762 768q28 0 51 -23t23 -51t-23 -51l-161 -161l-102 102l161 161q23 23 51 23zM504 538l102 -102
l-58 -58l-102 102zM398 437l103 -103l-63 -165l-187 -27l86 86q1 0 2.5 -0.5t2.5 -0.5q21 0 36.5 15t15.5 36t-15.5 36.5t-36.5 15.5t-36 -15.5t-15 -36.5q0 -1 0.5 -2.5t0.5 -2.5l-86 -86l27 187z" />
    <glyph glyph-name="pen-nib-solid" unicode="&#xeced;" 
d="M704 845l-145 -144l-215 -62q-16 -4 -30 -12t-25.5 -19t-20.5 -24.5t-14 -29.5l-130 -403l91 -92l403 131q16 5 29.5 14t24.5 20.5t19 25.5t12 29l61 216l145 145zM704 755l115 -115l-83 -83l-115 115zM567 636l133 -133l-59 -207q-9 -34 -43 -45l-352 -114l186 185
q7 -2 16 -2q27 0 45.5 18.5t18.5 45.5t-18.5 45.5t-45.5 18.5q-26 0 -45 -19t-19 -45v-4.5t0.5 -4.5l1 -4t0.5 -3l-185 -186l114 352q11 34 46 43z" />
    <glyph glyph-name="pen-solid" unicode="&#xecee;" 
d="M765 833q-54 0 -93 -39l-506 -506l-2 -10l-35 -176l-10 -47l47 10l186 37l506 506q39 39 39 93t-39 93t-93 39zM765 772q25 0 48 -23q48 -48 0 -96l-23 -22l-95 95l22 23q23 23 48 23zM650 681l95 -95l-387 -387q-32 63 -95 95zM222 242q60 -24 84 -84l-105 -21z" />
    <glyph glyph-name="pen-square-solid" unicode="&#xecef;" 
d="M160 800v-704h704v704h-704zM224 736h576v-576h-576v576zM644 676q-40 0 -68 -28l-264 -265l-1 -10l-15 -106l-7 -43l43 7l106 15l10 1l264 265q28 28 28 68t-28 68t-68 28zM644 612q14 0 23 -9q6 -6 8.5 -14t0.5 -16t-8 -14l-1 -1l-249 -251l-53 -7l7 53l250 250
q9 9 22 9z" />
    <glyph glyph-name="pencil-alt-solid" unicode="&#xecf0;" 
d="M790 831q-42 0 -73 -31l-3 -3l-20 19l-528 -528l-2 -10l-35 -176l-10 -47l47 10l186 37l528 528l-19 19l2 2l1 2q30 30 30 73.5t-30 73.5q-31 31 -74 31zM790 768q16 0 29 -13t13 -28.5t-13 -28.5l-3 -3l-57 57l3 3q13 13 28 13zM695 726l95 -95l-46 -47l-96 96zM604 634
l94 -94l-334 -335l-13 58l-4 20l-20 4l-58 13zM223 245l70 -16l16 -70l-65 -13l-34 34z" />
    <glyph glyph-name="pencil-ruler-solid" unicode="&#xecf1;" 
d="M282 864l-22 -23l-141 -141l-23 -22l230 -230l-160 -160l-2 -10l-35 -176l-10 -47l47 10l186 37l160 160l229 -229l22 23l141 141l23 22l-229 229l158 158q39 39 39 93t-39 93t-93 39t-93 -39l-158 -158zM282 773l62 -63l-47 -47l46 -46l47 47l76 -76l-95 -95l-185 185z
M763 769q26 0 48 -22t22 -47.5t-22 -47.5l-21 -21l-95 95l21 21q22 22 47 22zM650 681l95 -95l-387 -387q-32 62 -95 95zM653 403l76 -76l-48 -48l46 -46l48 48l61 -61l-96 -96l-183 183zM222 243q60 -25 85 -85l-106 -21z" />
    <glyph glyph-name="penny-arcade" unicode="&#xecf2;" 
d="M758 736h-5.5t-5 -0.5t-5.5 -1.5q-89 -23 -217 -57q-22 -6 -30 -27q-131 12 -244.5 -3.5t-182 -56t-68.5 -96.5q0 -39 34 -77.5t95 -72.5l3 -29q-14 -5 -22 -17.5t-6 -27.5l7 -70q1 -17 14 -28.5t30 -11.5q6 0 196 50q15 4 24.5 16.5t8.5 27.5q178 -33 321 -24.5
t232 52.5t87 106q0 39 -36.5 81.5t-120.5 84.5l-73 156q-10 23 -36 26zM754 692l106 -230l34 9l7 -70l-174 -46l-6 62l24 7l-11 23l-92 -25l-7 -27l31 8l6 -63l-180 -47l-8 70l34 9l53 200l-27 -8l-7 71q128 34 217 57zM421 599q33 1 54 -17.5t27.5 -45t3 -54.5t-16.5 -48
q-30 -41 -81 -53l-112 -29l4 -38l32 9l8 -70l-185 -49l-7 70l32 9l-17 181l-33 -9l-7 71q57 15 138 36q105 28 125 32.5t35 4.5zM675 593q-2 -10 -3.5 -16.5t-3 -11.5t-6 -24.5t-11.5 -50.5l63 17q-11 25 -19 42t-9.5 21t-4 9t-6.5 14zM355 514l-10 -2q-51 -13 -63 -17
l7 -73q35 10 56 15q40 9 45 40q3 25 -18 34q-8 4 -17 3z" />
    <glyph glyph-name="people-carry-solid" unicode="&#xecf3;" 
d="M256 800q-40 0 -68 -28t-28 -68t28 -68t68 -28t68 28t28 68t-28 68t-68 28zM768 800q-40 0 -68 -28t-28 -68t28 -68t68 -28t68 28t28 68t-28 68t-68 28zM256 736q13 0 22.5 -9.5t9.5 -22.5t-9.5 -22.5t-22.5 -9.5t-22.5 9.5t-9.5 22.5t9.5 22.5t22.5 9.5zM768 736
q13 0 22.5 -9.5t9.5 -22.5t-9.5 -22.5t-22.5 -9.5t-22.5 9.5t-9.5 22.5t9.5 22.5t22.5 9.5zM219 576q-23 0 -30 -22l-57 -170q-7 -20 -0.5 -39.5t23.5 -32.5l101 -72v-176h64v176q0 32 -26 52l-101 72l45 136l29 -74q12 -31 40 -48l77 -58h256l77 58q28 17 40 47
q18 46 29 76l46 -137l-102 -73q-12 -9 -19 -22.5t-7 -28.5v-176h64l-1 176l103 73q16 12 22.5 31.5t-0.5 39.5l-57 170q-7 22 -30 22h-21q-39 0 -53 -39q-14 -38 -34 -88q-4 -11 -14 -17q-1 -1 -3 -2l-40 -30v176h-256v-176l-40 30q-1 1 -3 2q-10 6 -14 17q-26 66 -34 88
q-14 39 -53 39h-21zM448 512h128v-128h-128v128zM136 286l-6 -65q-1 -11 -6 -21l-62 -136h70l50 110q9 19 11 40l3 29zM888 286l-60 -43l3 -29q2 -21 11 -40l50 -110h70l-62 136q-5 10 -6 21z" />
    <glyph glyph-name="pepper-hot-solid" unicode="&#xecf4;" 
d="M896 800v64q-96 0 -147 -52q-25 -26 -37 -62q-26 18 -56 18q-55 0 -83 -34t-29 -74q0 -11 -1 -22q-14 -41 -35 -28q-25 17 -28 83v11q-29 -30 -39 -57.5t-7 -47t8 -37t2.5 -36t-19.5 -35.5q-9 -12 -30.5 -11.5t-35.5 17.5q-8 10 -8 26.5t5 31.5t0.5 33t-21.5 31
q3 -20 -2 -31t-14.5 -12t-19 1.5t-15.5 7.5q-59 48 4 151q-45 -20 -71.5 -57t-24.5 -71q1 -26 15 -55t32.5 -52.5t36.5 -48.5t30.5 -45t12.5 -40.5t-16 -35.5q-11 -10 -25 -11.5t-26.5 5.5t-22 19.5t-11 31t5.5 40.5q-30 -16 -49.5 -47t-10.5 -74q1 -8 9.5 -31.5t12.5 -42.5
t3.5 -43t-15.5 -45t-45 -37l-2 -64h24q37 0 78.5 2.5t113.5 14t136.5 31.5t137.5 58.5t127 90.5q152 145 152 379q0 45 -23 86.5t-73 41.5q-13 0 -26 -3q6 19 20 34q33 33 102 33zM800 672q8 0 14.5 -7t9.5 -15.5t5 -19t2.5 -15.5t0.5 -7q0 -206 -132 -332
q-50 -48 -116.5 -83.5t-136 -54t-124 -27.5t-109.5 -13q53 12 104 47q68 37 124 99t90.5 132t54 141.5t21.5 133.5v8q0 5 1.5 10.5t5.5 14.5t14.5 14.5t26.5 5.5q19 0 33.5 -21.5t14.5 -42.5h64q0 32 32 32z" />
    <glyph glyph-name="percent-solid" unicode="&#xecf5;" 
d="M304 768q-46 0 -79 -33t-33 -79v-96q0 -46 33 -79t79 -33t79 33t33 79v96q0 46 -33 79t-79 33zM664 768l-384 -640h80l384 640h-80zM304 704q20 0 34 -14t14 -34v-96q0 -20 -14 -34t-34 -14t-34 14t-14 34v96q0 20 14 34t34 14zM720 448q-46 0 -79 -33t-33 -79v-96
q0 -46 33 -79t79 -33t79 33t33 79v96q0 46 -33 79t-79 33zM720 384q20 0 34 -14t14 -34v-96q0 -20 -14 -34t-34 -14t-34 14t-14 34v96q0 20 14 34t34 14z" />
    <glyph glyph-name="percentage-solid" unicode="&#xecf6;" 
d="M160 800v-704h704v704h-704zM224 736h576v-576h-576v576zM384 672q-39 0 -67.5 -28.5t-28.5 -67.5v-32q0 -39 28.5 -67.5t67.5 -28.5t67.5 28.5t28.5 67.5v32q0 39 -28.5 67.5t-67.5 28.5zM627 672l-307 -448h77l307 448h-77zM384 608q14 0 23 -9t9 -23v-32q0 -14 -9 -23
t-23 -9t-23 9t-9 23v32q0 14 9 23t23 9zM640 448q-39 0 -67.5 -28.5t-28.5 -67.5v-32q0 -39 28.5 -67.5t67.5 -28.5t67.5 28.5t28.5 67.5v32q0 39 -28.5 67.5t-67.5 28.5zM640 384q14 0 23 -9t9 -23v-32q0 -14 -9 -23t-23 -9t-23 9t-9 23v32q0 14 9 23t23 9z" />
    <glyph glyph-name="periscope" unicode="&#xecf7;" 
d="M516 864q-58 0 -112.5 -18t-98.5 -50t-76.5 -75t-50.5 -96.5t-18 -109.5q0 -136 142 -313q56 -70 113 -118q28 -23 51 -36q29 -16 50 -16t49 16q22 14 49 37q26 23 54 52.5t55 64.5q141 179 141 313q0 94 -47 174.5t-127 127.5t-174 47zM516 800q116 0 200 -84t84 -201
q0 -36 -17.5 -84.5t-46 -96.5t-63.5 -93q-51 -64 -101 -108q-8 -6 -15 -12t-13.5 -10t-11.5 -8q-6 -3 -15 -6l-1 -1q-5 0 -19 8q-18 10 -41 30q-52 42 -104 108q-55 69 -91.5 144t-36.5 129q0 77 38.5 142.5t106 104t147.5 38.5zM512 640q-1 0 -3 -0.5t-3 -0.5q6 -16 6 -31
q0 -40 -28 -68t-68 -28q-15 0 -31 6q0 -1 -0.5 -3t-0.5 -3q0 -53 37.5 -90.5t90.5 -37.5t90.5 37.5t37.5 90.5t-37.5 90.5t-90.5 37.5z" />
    <glyph glyph-name="person-booth-solid" unicode="&#xecf8;" 
d="M240 832q-46 0 -79 -33t-33 -79t33 -79t79 -33t79 33t33 79t-33 79t-79 33zM384 832v-251q12 -15 20 -30l30 -61l14 -10v288h36l59 -414l-30 -122l-1 -24q0 -33 23.5 -56.5t56.5 -23.5q30 0 53 21q27 -21 59 -21q36 0 64 25q28 -25 64 -25q16 0 32 6v-70h64v768h-544z
M240 768q20 0 34 -14t14 -34t-14 -34t-34 -14t-34 14t-14 34t14 34t34 14zM549 768h315v-544q0 -13 -9.5 -22.5t-22.5 -9.5t-22.5 9.5t-9.5 22.5h-64q0 -13 -9.5 -22.5t-22.5 -9.5t-22.5 9.5t-9.5 22.5h-64v-16q0 -7 -4.5 -11.5t-11.5 -4.5t-11.5 4.5t-4.5 11.5v12l33 130z
M224 576q-53 0 -90.5 -37.5t-37.5 -90.5v-168l64 -32v-184h64v224l-64 32v128q0 26 19 45t45 19h37q40 0 57 -35l41 -82l85 -63l36 52l-71 53l-34 68q-16 33 -47 52t-67 19h-37zM384 304v-240h64v193l-23 17zM256 288v-224h64v224h-64z" />
    <glyph glyph-name="phabricator" unicode="&#xecf9;" 
d="M510.5 800q-67.5 0 -130.5 -26.5t-113 -76.5q-53 -54 -173 -175q-30 -30 -30 -74t30 -74q103 -104 176 -178q67 -66 156 -89t177.5 1t154.5 91q32 33 49 50l25 25t33.5 34t64.5 66q30 30 30 74t-30 74l-176 178q-50 49 -113 74.5t-130.5 25.5zM512 735.5
q119 -0.5 203.5 -84.5t84.5 -203t-84.5 -203.5t-203.5 -84.5t-203 84.5t-84 203.5t84 203.5t203 84zM564 640q-1 1 -11 -9.5t-20 -21.5l-10 -11h-26l-44 42l-40 -17q-1 -2 -1 -15t1 -28l1 -14l-18 -18q-1 -1 -60 -1l-16 -40q0 -1 10.5 -11.5l20.5 -20.5l11 -10v-25l-42 -43
l19 -40q1 -1 15.5 -1h29.5h14l19 -18q-1 -64 2 -65l40 -16q2 -1 12 11l20 24l10 12l26 -1l43 -46l40 15q1 3 1 17v31l-1 16l18 18q1 0 59 1l16 40q2 2 -41 41v26l42 42l-19 40q-1 1 -15.5 1.5t-29.5 -0.5h-14l-19 19l-2 58zM506 516q9 0 18 -2t16.5 -5.5t14 -9.5t11 -13
t7.5 -15.5t3 -17.5q1 -27 -17.5 -47t-46.5 -21q-18 -1 -33.5 7t-25.5 23t-10 32q-2 28 17 48t46 21z" />
    <glyph glyph-name="phoenix-framework" unicode="&#xecfa;" 
d="M214 768q-48 0 -96 -14t-83 -39q-2 -2 -3 -4h3q1 0 1 1q7 1 14 0.5t14 -1.5q68 -12 84 -115q3 -20 3.5 -42.5t1.5 -43t7 -43.5q10 -41 33.5 -73.5t52 -50.5t56 -27t49.5 -9q30 1 39 4q-1 1 -8.5 2t-19 5t-24 10.5t-26.5 21.5t-24 35q-12 23 -10 41.5t15.5 28t31 9
t31.5 -9t30.5 -26.5t31.5 -36.5t31 -37t36.5 -31t41.5 -15.5q27 -3 58.5 5.5t58.5 25t45 37.5h-3q-36 -15 -97.5 -9.5t-104.5 31.5q-39 23 -59.5 57t-18.5 55q2 22 19 28t35 1q13 -3 33.5 -20.5t24.5 -20.5q35 -23 77 -15q15 3 33.5 10.5t21.5 11.5h-2h-2t-11.5 1t-16.5 1
q-38 6 -72.5 27t-58 48.5t-51 59t-53 58t-63 45.5t-80.5 22q-12 1 -26 1zM198 737q-1 -17 -19.5 -21.5t-33.5 11.5q-1 1 -2 3q13 2 27 4t28 3zM432 682q2 -3 3 -4q34 -36 77 -58q56 -28 110 -23q21 2 38 11q1 0 3 2h-2q-3 0 -9.5 -1t-9.5 -2q-16 -1 -29.5 2t-25.5 11
q-9 5 -23.5 16.5t-26.5 19.5t-25 13q-31 13 -80 13zM488 608q-1 -1 2 -5q25 -30 60 -49.5t71 -26.5t70.5 -5t63.5 12q28 10 49.5 4.5t34.5 -18.5t17 -29l2 -2q0 10 -2 20.5t-6 20.5q-14 37 -48 50q-37 15 -99 -4q-31 -10 -57.5 -12t-62.5 4q-17 3 -32.5 8.5t-30 12.5
t-28.5 17q-4 3 -4 2zM759 466q-7 0 -14.5 -0.5t-15.5 -1.5q-13 -2 -24.5 -5t-23 -9t-18.5 -9.5t-20 -11.5t-18 -11q-14 -8 -26.5 -11t-23 -2l-31.5 3l1 -1q39 -19 97 -12q9 1 17 3t15.5 4.5t13 4.5t12.5 6l10.5 6t11 6.5t10.5 6.5q20 12 45 12t55 -5q-11 8 -22 13.5t-24 9
t-27 4.5zM820 418q-23 -2 -43 -12t-31 -19.5t-28 -26.5q-24 -26 -34 -35t-19.5 -14.5t-17 -8l-7.5 -2.5q27 -2 67 6q35 7 61 24t37.5 32.5t26 28t30.5 12.5q10 0 17.5 -1t16.5 -4l-1 1q-1 1 -5 3.5t-6 4t-7 3.5t-9.5 3.5t-11.5 2.5t-15 2q-11 1 -21 0zM893 377
q-27 3 -53 -14l-2 -2q29 -2 43 -12q5 -5 12 -11t11.5 -10.5t11 -8.5t12.5 -7q15 -4 29 -2.5t23 4.5t12 6q0 1 -1 1l-2.5 0.5t-6 1t-7.5 2t-9 4.5t-9 8q-4 3 -8.5 7.5t-7 7.5t-6.5 6.5t-7.5 6t-7.5 5t-9 3.5q-9 3 -18 4zM225 320l-1 -1q7 -11 28 -33q24 -26 55 -46t66 -32
t66 -12q19 1 41.5 4t41 5t34.5 0q10 0 19 -1.5t16 -3.5t11.5 -3.5l9 -3t5.5 -0.5q-5 7 -15 15q-22 18 -50 23t-55 6t-42 8q-8 4 -12 8.5t-3 9t5 7.5q6 6 36 11q-2 4 -10.5 7t-23 3.5t-31.5 -5.5q-52 -21 -109 -5q-9 2 -17.5 5.5t-16 6.5t-14 6.5t-12 6.5t-9.5 5.5l-8 5
t-5 3.5zM534 190h-2q43 -12 71 -45q14 -16 31 -23.5t38 -9.5q0 2 -2 3q-12 7 -18 17q-1 0 -4.5 6.5t-5.5 9t-6.5 8t-8.5 9t-9.5 8t-12.5 7.5t-14 5q-22 5 -57 5z" />
    <glyph glyph-name="phoenix-squadron" unicode="&#xecfb;" 
d="M516 829q-47 1 -94 -9t-90.5 -30t-80.5 -49q-68 -52 -109 -128t-46 -160v-50q5 -79 41 -150q51 -100 147 -159q88 -55 196.5 -61.5t203.5 38.5q124 56 188 174q41 73 48 157q1 31 0 62q-9 100 -56 173q36 -79 22 -169q-14 -74 -64 -130q1 5 3 12.5t3.5 13t3.5 13t3 13.5
q6 40 2 69q-1 18 -2 28t-3.5 26.5t-6 30t-7.5 24.5q0 -4 -0.5 -18.5t0.5 -17.5q1 -42 -13 -87.5t-39 -78.5q-52 -73 -130 -90q-43 -9 -70 8q-14 8 -23 23t-11 33q-6 49 19 103q29 60 84 96q1 2 4 3.5t5 3t4.5 3t4.5 3.5t3 4q19 22 34 39.5t31 33.5l11.5 11.5t11.5 11l12 11
l12 11t12 10.5l12 10q-22 0 -46.5 -6t-37.5 -12t-43 -20q-76 -37 -143 -89q-10 -7 -24 -20t-26 -22.5t-27 -16.5q-27 -13 -61 -9q43 -16 101 2q18 6 46 21q2 2 10 0v-5v-6t-1 -4.5t-3 -4.5q-19 -20 -52 -39q-37 -21 -70 -26q-32 -7 -60 10q-33 21 -32 71q0 9 1.5 17l3 16
t4.5 16t6 15.5t7 15t8.5 15t9.5 13.5q52 73 139 101q12 5 69 16q-59 7 -96 3q-45 -4 -92 -24l-6 -3t-6.5 -3t-6 -2t-7.5 -1q74 82 181 95q57 9 102 0q-59 22 -124 21zM651 637q-3 -14 -17 -18q-12 -5 -26 -8q5 4 9.5 7t12.5 7t9.5 5t11.5 7z" />
    <glyph glyph-name="phone-alt-solid" unicode="&#xecfc;" 
d="M724 863q-15 -1 -31 -8l-1 1l-1 -1q-202 -71 -362 -231q-146 -146 -231 -364q-21 -61 22 -111l1 -2l100 -99q20 -20 49.5 -20t49.5 20l131 131q20 20 20 50t-20 50l-63 63q37 76 90 132q53 55 130 89l66 -66l3 -2q24 -16 50 -15q27 1 47 23l1 -1l2 3l129 128q20 20 20 50
t-20 50l-99 99q-22 22 -53 29q-16 3 -30 2zM729 799q19 1 32 -12l100 -99q4 -5 0 -9l-134 -134q-1 -1 -3 -1t-10 4h-2l-75 76l-15 15l-19 -7q-11 -4 -29.5 -12.5t-64 -38t-78.5 -63.5q-32 -34 -60 -76t-40 -68l-12 -25l-8 -20l15 -16l80 -80q4 -5 0 -9l-131 -131q-5 -4 -9 0
l-99 99q-17 21 -9 47q80 203 217 340q84 84 176 137.5t164 78.5l2 1q6 3 12 3z" />
    <glyph glyph-name="phone-slash-solid" unicode="&#xecfd;" 
d="M119 887l-46 -46l343 -342l489 -490l46 46l-445 445q46 40 106 66l64 -64q1 -1 3 -1t3 -1l-7 -7h24q27 -13 54 0h13l145 141l1 2q17 21 17 47.5t-17 46.5l-1 2l-103 101l1 -2q-21 24 -52 32q-15 3 -30 2t-30 -6q-72 -25 -163 -77t-177 -133zM730 801q20 1 31 -12l1 -1
l101 -98q5 -7 0 -14l-135 -131l-6 2l-95 95l-19 -7q-9 -3 -24 -9.5t-54 -30t-70 -50.5l-58 58q80 75 166 124t152 72zM269 555q-102 -126 -167 -292q-20 -61 24 -113l99 -99q21 -21 49.5 -21t50.5 21l131 131q21 22 21 50.5t-21 49.5l-64 64q14 27 31 55l-46 46
q-34 -50 -53 -95l-9 -20l96 -95q1 -2 1 -5t-1 -5l-132 -131q-1 -1 -2.5 -1h-3.5t-3 1l-97 98q-19 22 -11 47q60 153 152 269z" />
    <glyph glyph-name="phone-solid" unicode="&#xecfe;" 
d="M277 864q-26 0 -47 -17l-2 -1l-1 -1l-100 -103l1 -1q-23 -21 -30 -51t3 -58q27 -78 84.5 -175.5t147.5 -187.5q148 -148 364 -232q61 -21 111 22l101 101q20 20 20 49.5t-20 49.5l-130 130l-1 2q-20 20 -50 20t-50 -20l-64 -64q-74 36 -131 90q-55 52 -89 130l64 64
q20 20 20 49t-21 49l1 1l-3 3l-129 133l-2 1q-21 17 -47 17zM277 800q3 0 7 -3l131 -134q3 -3 -2 -7l-80 -80l-15 -14l7 -20q4 -11 12.5 -29.5t38 -64t63.5 -78.5l7 -6q33 -30 73.5 -56.5t64.5 -37.5l24 -11l20 -9l95 95q4 4 5 4t5 -4l131 -131q4 -5 0 -9l-98 -98
q-21 -18 -49 -9q-203 80 -339 216q-84 84 -138 176.5t-79 163.5q-9 25 10 42l2 2l97 99q4 3 7 3z" />
    <glyph glyph-name="phone-square-alt-solid" unicode="&#xecff;" 
d="M160 800v-704h704v704h-704zM224 736h576v-576h-576v576zM644 672q-6 0 -12 -1t-11.5 -3.5t-10.5 -6t-9 -7.5l-37 -37q-11 -11 -15.5 -27t0 -32t15.5 -27l55 -55q-26 -37 -58 -69l-8 -8q-32 -32 -69 -58l-55 55q-18 18 -43 18t-43 -18l-37 -37q-7 -7 -11.5 -15.5t-6 -18
t0 -19t6 -18t11.5 -16.5l30 -30q28 -27 64 -15l4 2q54 17 114 58q44 29 80 67l8 7q37 37 67 81q40 60 58 114l1 4q4 10 4 20q0 12 -4.5 23.5t-13.5 19.5l-31 31q-4 4 -9 7.5t-10.5 6t-11.5 3.5t-12 1z" />
    <glyph glyph-name="phone-square-solid" unicode="&#xed00;" 
d="M160 800v-704h704v704h-704zM224 736h576v-576h-576v576zM379.5 672q-25.5 0 -43.5 -18l-30 -30q-27 -28 -15 -64l2 -4q17 -54 58 -114q29 -44 67 -80l7 -8q37 -38 81 -67q60 -40 114 -58l4 -2q10 -3 20 -3q25 0 44 18l30 31q18 17 18 43q0 12 -4.5 23.5t-13.5 19.5
l-37 37q-8 8 -19.5 12.5t-23.5 4.5t-23.5 -4.5t-19.5 -12.5l-55 -55q-37 26 -69 58l-8 8q-32 32 -58 69l55 55q18 17 18 43q0 8 -2 16t-6 14.5t-10 12.5l-37 37q-18 18 -43.5 18z" />
    <glyph glyph-name="phone-volume-solid" unicode="&#xed01;" 
d="M608 960v-64q146 0 249 -103t103 -249h64q0 172 -122 294t-294 122zM277 864q-27 0 -47 -17l-2 -1l-101 -104l3 2q-25 -21 -32.5 -52.5t3.5 -59.5q28 -78 84.5 -175.5t147.5 -187.5q146 -147 364 -232q30 -10 59 -4t52 26l101 101q10 10 15 23t5 26.5t-5 27t-15 22.5
l-131 132q-20 20 -50 20t-50 -20l-63 -64q-76 36 -132 90q-56 53 -89 130l64 64q10 10 15.5 24t5.5 28t-6 27.5t-18 22.5l3 -3l-132 136l-2 1q-20 17 -47 17zM608 832v-64q93 0 158.5 -65.5t65.5 -158.5h64q0 119 -84.5 203.5t-203.5 84.5zM277 800q3 0 7 -3l130 -133l1 -1
q3 -2 -2 -7l-95 -94l7 -20q4 -11 12.5 -29t37.5 -64t64 -79q21 -20 46 -39t46 -31.5t39 -22t28 -14.5l10 -4l20 -9l95 95q4 4 5 4t5 -4l131 -131q4 -5 0 -9l-98 -97q-22 -19 -48 -10q-204 79 -340 216q-84 84 -138 176t-78 164l-1 1q-4 9 -1 21.5t11 19.5l1 1l98 100
q2 2 3.5 2.5t3.5 0.5zM608 704v-64q40 0 68 -28t28 -68h64q0 66 -47 113t-113 47z" />
    <glyph glyph-name="photo-video-solid" unicode="&#xed02;" 
d="M320 896v-224h64v160h64v-32h64v32h288v-32h64v32h64v-384h-64v32h-64v-96h192v512h-672zM448 736v-64h64v64h-64zM800 736v-64h64v64h-64zM64 608v-576h672v576h-672zM800 608v-64h64v64h-64zM128 544h544v-313l-83 83l-23 22l-90 -90l-137 138l-22 23l-189 -189v326z
M496 480q-20 0 -34 -14t-14 -34t14 -34t34 -14t34 14t14 34t-14 34t-34 14zM317 316l160 -160l22 23l67 67l106 -106v-44h-544v31z" />
    <glyph glyph-name="php" unicode="&#xed03;" 
d="M512 731q-139 0 -257 -36t-186.5 -98t-68.5 -135.5t68.5 -135.5t186.5 -98t257 -36t257 36t186.5 98t68.5 135.5t-68.5 135.5t-186.5 98t-257 36zM512 704q100 0 191 -20t155 -53.5t101.5 -78t37.5 -91.5q0 -63 -63 -118.5t-176 -89.5t-246 -34t-246 34t-176 89.5
t-63 118.5t63 119t176 90t246 34zM450 650l-52 -266h58l30 152q6 0 14 0.5t13 0.5h11t9.5 -0.5t7.5 -0.5t6.5 -0.5t5.5 -1.5t4.5 -2t3.5 -3q5 -8 3.5 -19.5t-12.5 -66.5q-2 -11 -3.5 -18t-3.5 -19t-4 -22h58q4 17 8 38.5t6.5 33.5t5.5 26.5t4 22t2 17t0 14t-2.5 10.5t-4 9.5
t-6.5 7.5t-10 7t-14.5 5t-15 3t-18.5 1.5t-18.5 0.5h-21h-20.5l14 70h-58zM208 579l-52 -267h58l14 71h25.5h25.5t20 1t21 3t16.5 5t18.5 8.5t15 12.5q21 19 31.5 45.5t8.5 52t-17 42.5q-8 9 -18.5 14.5t-24.5 8.5t-30 3h-112zM662 579l-52 -267h58l14 71h23.5h23t18.5 0.5
t18.5 2t15 3.5t16.5 5.5t13.5 8t14.5 10.5q20 19 30.5 45.5t8.5 52t-17 42.5q-7 9 -18 14.5t-25 8.5t-30 3h-112zM299 537q30 -1 42 -11.5t6 -42.5q-2 -11 -5 -19t-8 -14t-8.5 -10.5t-12 -7t-12.5 -4t-15 -2.5t-15 -1h-17.5h-17.5l22 112q3 0 21.5 0.5t19.5 -0.5zM753 537
q30 -1 42 -11.5t6 -42.5q-2 -12 -6.5 -21t-8.5 -15.5t-12.5 -10.5t-12.5 -6t-16.5 -3.5t-16.5 -1.5h-19h-19l22 112q3 0 21.5 0.5t19.5 -0.5z" />
    <glyph glyph-name="pied-piper-alt" unicode="&#xed04;" 
d="M966 914q-3 -5 -13.5 -23.5t-18 -31t-23 -34t-31.5 -38t-42 -38t-54 -38t-67.5 -33.5t-84.5 -29v35q-14 -2 -24.5 7t-18 20t-10.5 13q-8 -8 -21 -23t-23 -25t-22 -18q-10 -6 -31 -16.5t-32 -19t-14 -21.5q53 20 123 20q27 0 40 -4.5t17.5 -9t23.5 -27.5q8 2 14 14
q-5 9 -10 16t-7 10t-3.5 6.5t-0.5 7.5q29 2 64 11.5t79 31t81 51.5t67.5 78.5t41.5 107.5zM545 607q-73 0 -80 -9q-1 -3 1 -17.5t-2 -32t-18 -34.5q5 -1 16 -4t17 -5q-5 -9 -5 -18q0 -11 11.5 -16t25 -5.5t25 -9.5t11.5 -28t-32.5 -59.5t-63.5 -40.5q-96 82 -88 111
q11 2 33 7t38.5 8.5t19.5 4.5q7 2 11.5 8.5t2.5 14.5q-6 21 -37 12l-68 -15q-7 14 -13.5 19.5t-10.5 4.5t-11 -4t-10 -4q-22 -4 -31.5 -10.5t-0.5 -22.5q-2 -1 -38.5 -9t-78 -17t-77.5 -17l-37 -8q-8 -2 -16.5 -8t-5.5 -17q5 -17 20 -15q8 1 129 28l122 27q2 -5 16 -17
t25 -28q81 -116 101 -116q33 0 68.5 21t55.5 42l20 21q-1 -13 -15.5 -32t-28.5 -32l-15 -13q0 -35 3 -69l2 -1q3 0 8 -1t11.5 -1.5t17 -1t22.5 -0.5q19 0 37 3t26 5l9 3q16 59 16 97q0 23 -2.5 40t-5 27.5t-10.5 21t-12 15t-17.5 15t-18.5 15.5l12 3q41 -3 65 -33t35 -77.5
t18.5 -97.5t24 -102t43.5 -82q4 1 38 15t78 34t61 31q-47 38 -88 89.5t-67 91.5t-56 76.5t-71.5 56.5t-97.5 20q0 15 7.5 19.5t17.5 2.5t20 6.5t13 32.5q-4 -2 -11.5 -5.5t-11.5 -5.5q-4 11 -11.5 30t-9 24t-8 15.5t-10.5 12t-14 5.5t-20.5 4.5t-28.5 0.5zM413 515
q-4 0 -22 -4q-2 0 -5 -1.5t-5 -1.5q1 -2 5 -9.5t5 -8.5q8 2 23.5 5.5t22.5 4.5q-2 1 -11.5 8t-12.5 7zM439 451q-3 -1 -11 -3l-12 -3q3 -5 41 -104q6 4 18 11.5t18 11.5q-3 4 -16 25.5t-25 41t-13 20.5zM666 194q-10 -1 -56 -6.5t-50 -7.5l4 -24q68 10 107 23q-4 14 -5 15z
M534 188q-5 -18 0 -45q13 3 19 5q-3 28 -5 40h-14zM676 163q-38 -2 -72.5 -10t-50.5 -15t-19 -10q-1 -3 5 -38.5t6 -38.5q105 -15 181 17q-3 11 -25 53t-25 42z" />
    <glyph glyph-name="pied-piper-hat" unicode="&#xed05;" 
d="M992 801l-39 -10q-57 -14 -107.5 -44.5t-82.5 -62.5t-62 -77.5t-44 -74t-31 -67.5q-47 47 -120 47q-109 0 -199 -104q-36 -41 -103 -157q-23 -10 -58.5 -16.5t-59.5 -8.5l-23 -2l-48 -1l20 -44q11 -24 36 -44q48 -39 121 -39q36 0 135 16t153 16h160v2q29 -1 41 20
l81 134q12 20 0.5 42.5t-34.5 25.5h-56q-5 0 -14 -1t-13 -1q5 11 7 16q3 6 9 20l22 44q2 1 8 3q5 2 11.5 3.5t16 4t15.5 4.5q31 9 50 17q32 14 43 35t19 68q8 49 13 62q14 37 41 60.5t71 40.5l21 8v65zM791 611q-1 -4 -4 -17t-4 -19q-6 -35 -12 -47l-1 -1q-2 -1 -5.5 -2.5
t-6.5 -3.5q-13 -6 -35 -12q27 53 68 102zM506 448q50 0 78 -30q7 -7 12 -19q-1 -1 -1.5 -3.5t-1.5 -3.5q-6 -13 -12.5 -28.5t-8.5 -19.5q-61 -9 -143.5 -32.5t-108.5 -23.5v-64q42 0 153.5 32t198.5 32h17l-58 -96h-151q-65 0 -165.5 -16t-122.5 -16q-30 0 -53 9
q65 10 99 26l9 4l5 9q72 123 103 158q71 82 151 82z" />
    <glyph glyph-name="pied-piper-pp" unicode="&#xed06;" 
d="M431 832q-32 0 -75 -19h-132v-525l38 8l115 23l26 5v101q3 0 7.5 -2t5.5 -2v-364l38 8l115 23l26 5v101q3 -1 12.5 -3.5t15.5 -2.5q82 0 140 61t58 146q0 84 -56.5 144t-137.5 62q2 17 2 25q0 85 -58 145.5t-140 60.5zM431 768q55 0 94.5 -41t39.5 -101t-39.5 -101.5
t-94.5 -41.5q-24 0 -48 10l-44 18v-134l-51 -11v383h76l7 4q28 15 60 15zM404 743q-25 0 -49 -14l-16 -9v-186l16 -9q24 -14 49 -14q45 0 75.5 34.5t30.5 81.5t-30.5 81.5t-75.5 34.5zM404 679q17 0 29.5 -15t12.5 -37t-12.5 -37t-30.5 -15zM623 537q55 0 94.5 -41
t39.5 -101t-39.5 -101.5t-94.5 -41.5q-24 0 -48 10l-44 18v-134l-51 -11v290q27 7 51 22v-144l16 -9q24 -14 49 -14q45 0 75.5 34.5t30.5 81.5t-30.5 81.5t-75.5 34.5q2 4 13 24q7 1 14 1zM596 448q17 0 29.5 -15t12.5 -37t-12.5 -37t-30.5 -15z" />
    <glyph glyph-name="pied-piper" unicode="&#xed07;" 
d="M431 832q-32 0 -75 -19h-132v-525l38 8l115 23l26 5v101q3 0 7.5 -2t5.5 -2v-364l38 8l115 23l26 5v101q3 -1 12.5 -3.5t15.5 -2.5q82 0 140 61t58 146q0 84 -56.5 144t-137.5 62q2 17 2 25q0 85 -58 145.5t-140 60.5zM431 768q55 0 94.5 -41t39.5 -101t-39.5 -101.5
t-94.5 -41.5q-24 0 -48 10l-44 18v-134l-51 -11v383h76l7 4q28 15 60 15zM404 743q-25 0 -49 -14l-16 -9v-186l16 -9q24 -14 49 -14q45 0 75.5 34.5t30.5 81.5t-30.5 81.5t-75.5 34.5zM404 679q17 0 29.5 -15t12.5 -37t-12.5 -37t-30.5 -15zM623 537q55 0 94.5 -41
t39.5 -101t-39.5 -101.5t-94.5 -41.5q-24 0 -48 10l-44 18v-134l-51 -11v290q27 7 51 22v-144l16 -9q24 -14 49 -14q45 0 75.5 34.5t30.5 81.5t-30.5 81.5t-75.5 34.5q2 4 13 24q7 1 14 1zM596 448q17 0 29.5 -15t12.5 -37t-12.5 -37t-30.5 -15z" />
    <glyph glyph-name="piggy-bank-solid" unicode="&#xed08;" 
d="M432 832q-59 0 -101.5 -42.5t-42.5 -101.5q0 -37 19 -70q-90 -53 -127 -138h-4q-16 0 -16 16q0 8 7 13l-37 52q-34 -24 -34 -65q0 -29 19 -51t48 -27q-3 -21 -3 -34q0 -114 104 -200q-14 -56 21 -91q28 -28 69 -28t69 28l12 12q49 -9 77 -9t77 9l12 -12q28 -28 69 -28
t69 28q33 33 21 89q39 32 65 74h71v256h-73q-18 29 -41 52l18 99v41h-32q-9 0 -23.5 -1.5t-52 -14t-66.5 -34.5q-26 7 -52 12q2 11 2 22q0 59 -42.5 101.5t-101.5 42.5zM432 768q33 0 56.5 -23.5t23.5 -56.5q0 -6 -2 -16q-74 0 -145 -27q-13 20 -13 43q0 33 23.5 56.5
t56.5 23.5zM729 634l-12 -73l-3 -17l14 -12q34 -30 52 -66l9 -18h43v-128h-43l-9 -18q-23 -46 -72 -81l-23 -17l14 -26q13 -22 -5 -40q-10 -10 -23.5 -10t-23.5 10l-23 23l-13 12l-17 -4q-39 -9 -82 -9t-82 9l-17 4l-13 -12l-23 -23q-10 -10 -23.5 -10t-23.5 10
q-18 18 -5 40l14 26l-23 17q-92 67 -92 163q0 91 83.5 157.5t204.5 66.5q59 0 111 -17l17 -6l14 12q29 26 75 37zM704 448q-13 0 -22.5 -9.5t-9.5 -22.5t9.5 -22.5t22.5 -9.5t22.5 9.5t9.5 22.5t-9.5 22.5t-22.5 9.5z" />
    <glyph glyph-name="pills-solid" unicode="&#xed09;" 
d="M272 800q-73 0 -124.5 -51.5t-51.5 -124.5v-352q0 -73 51.5 -124.5t124.5 -51.5t124.5 51.5t51.5 124.5v352q0 73 -51.5 124.5t-124.5 51.5zM272 736q46 0 79 -33t33 -79v-144h-224v144q0 46 33 79t79 33zM720 512q-86 0 -147 -61t-61 -147t61 -147t147 -61t147 61
t61 147t-61 147t-147 61zM720 448q60 0 102 -42t42 -102q0 -41 -22 -76l-198 198q35 22 76 22zM160 416h224v-144q0 -46 -33 -79t-79 -33t-79 33t-33 79v144zM598 380l198 -198q-35 -22 -76 -22q-60 0 -102 42t-42 102q0 41 22 76z" />
    <glyph glyph-name="pinterest-p" unicode="&#xed0a;" 
d="M515 832q-61 0 -119 -20t-103.5 -55.5t-73 -90t-27.5 -118.5q0 -32 7 -60.5t17.5 -49t24 -35.5t27 -22t25.5 -7q10 0 17 21t7 35q0 5 -9 19t-18.5 37.5t-9.5 50.5q0 95 63.5 156.5t158.5 61.5q41 0 75 -11.5t59.5 -33.5t39.5 -55t14 -74q0 -35 -7.5 -74t-23 -78
t-45 -64.5t-67.5 -25.5q-30 0 -51.5 19.5t-21.5 49.5t19 89.5t19 90.5q0 53 -41 65q-40 12 -73 -22q-31 -31 -31 -84q0 -49 15 -80q-2 -11 -14 -60t-17.5 -75.5t-14 -68.5t-12.5 -76t-4 -61q0 -15 7 -89q5 -5 11 -3q24 32 38.5 56t24.5 51.5t14.5 44.5t14 59.5t17.5 72.5
q7 -14 19.5 -25t27.5 -18t31 -10.5t31 -3.5q61 0 109 27.5t76.5 73t43.5 99.5t15 111q0 76 -40.5 136.5t-105 92t-139.5 31.5z" />
    <glyph glyph-name="pinterest-square" unicode="&#xed0b;" 
d="M160 800v-704h704v704h-704zM224 736h576v-576h-368q15 28 20 48q2 7 9 29t13 40.5l6 18.5q4 -8 12.5 -15.5t19 -13t23 -8.5t25.5 -3q79 0 127.5 60.5t48.5 152.5q0 87 -62.5 145t-153.5 58q-109 0 -170.5 -62t-61.5 -150q0 -41 20 -81t51 -55q10 -5 12 5q0 1 2 9t4 16.5
t4 13.5q1 6 -3 10q-26 32 -26 80q0 62 43.5 107.5t114.5 45.5q65 0 106 -40t41 -103q0 -71 -28.5 -113.5t-75.5 -42.5q-27 0 -45.5 17t-12.5 42q3 15 11 40t13 44t5 33q0 40 -33.5 48t-57.5 -25q-17 -23 -17 -59q0 -31 10 -52q-4 -19 -11 -51q-21 -90 -26 -122.5t-3 -66.5
h-162v576z" />
    <glyph glyph-name="pinterest" unicode="&#xed0c;" 
d="M512 832q-159 0 -271.5 -112.5t-112.5 -271.5q0 -120 67.5 -217.5t176.5 -140.5q-8 71 1 111l45 191q-11 23 -11 56q0 40 20 67t49 27q24 0 36.5 -15.5t12.5 -38.5q0 -15 -5.5 -36t-14 -48.5t-12.5 -43.5q-7 -29 10.5 -49.5t46.5 -20.5q52 0 86.5 49.5t34.5 126.5
q0 34 -12 63t-33 49.5t-51 32t-65 11.5q-78 0 -125.5 -49.5t-47.5 -116.5q0 -24 8 -48.5t21 -39.5q4 -5 2 -11q-7 -29 -10 -43q-3 -11 -13 -6q-35 16 -56.5 60.5t-21.5 88.5q0 97 67.5 165t185.5 68q101 0 169 -63.5t68 -158.5q0 -101 -56.5 -170t-142.5 -69q-29 0 -53.5 13
t-34.5 31q-19 -73 -24 -91q-10 -40 -48 -101q56 -17 114 -17q159 0 271.5 112.5t112.5 271.5t-112.5 271.5t-271.5 112.5z" />
    <glyph glyph-name="pizza-slice-solid" unicode="&#xed0d;" 
d="M396 838l-10 -27l-263 -720l32 -32l19 7l728 266l-7 28q-2 7 -5.5 20t-18 50.5t-32 73t-48 80.5t-64.5 79t-78 64t-82 48.5t-71 31.5t-52 19zM435 759q151 -47 246 -142t142 -246l-49 -18q-7 27 -14 45q-38 94 -121 177q-82 82 -177 120q-22 9 -45 15zM396 650
q21 -6 42 -14q84 -34 156 -106q23 -23 44 -50q-26 -1 -44 -19.5t-18 -44.5q0 -27 18.5 -45.5t45.5 -18.5q36 0 55 32l2.5 -5l2.5 -5q7 -18 14 -43l-320 -116q-14 25 -42 25q-20 0 -34 -14t-14 -34q0 -5 1 -10l-93 -34l112 307q14 -7 28 -7q27 0 45.5 18.5t18.5 45.5
q0 22 -13.5 39.5t-34.5 22.5zM448 400q-20 0 -34 -14t-14 -34t14 -34t34 -14t34 14t14 34t-14 34t-34 14z" />
    <glyph glyph-name="place-of-worship-solid" unicode="&#xed0e;" 
d="M512 819l-25 -31l-128 -160l-7 -9v-201l-177 -111l34 -54l15 9v-166h256v128q0 14 9 23t23 9t23 -9t9 -23v-128h256v166l15 -9l34 54l-177 111v201l-7 9l-128 160zM512 717l96 -120v-139l-79 49l-17 11l-17 -11l-79 -49v139zM512 608q-13 0 -22.5 -9.5t-9.5 -22.5
t9.5 -22.5t22.5 -9.5t22.5 9.5t9.5 22.5t-9.5 22.5t-22.5 9.5zM512 442l224 -140v-142h-128v64q0 39 -28.5 67.5t-67.5 28.5t-67.5 -28.5t-28.5 -67.5v-64h-128v142z" />
    <glyph glyph-name="plane-arrival-solid" unicode="&#xed0f;" 
d="M109 833l-2 -41l-11 -281l-1 -25l24 -7l205 -62l-223 -155l55 -22l91 -36l12 -5l12 5l320 133l205 -62q40 -12 78 8.5t50 60.5t-8.5 78t-60.5 50l-182 56l-121 200l-7 11l-12 4l-85 23l-47 12l7 -48l17 -125l-136 42l-52 134l-6 15l-15 5l-68 20zM169 748l14 -4l51 -134
l5 -15l15 -4l582 -180q16 -5 23.5 -18.5t2.5 -29.5t-18.5 -23.5t-29.5 -2.5l-216 65l-11 3l-10 -4l-318 -133l-24 10l235 162l-64 19l-245 74zM477 691l26 -7l78 -127l-90 27zM656 288q-20 0 -34 -14t-14 -34t14 -34t34 -14t34 14t14 34t-14 34t-34 14zM96 128v-64h832v64
h-832z" />
    <glyph glyph-name="plane-departure-solid" unicode="&#xed10;" 
d="M823 807q-19 -2 -36 -11l-151 -80l-216 53l-12 -6l-69 -40l-41 -24l38 -29l87 -66l-109 -58l-117 53l-14 6l-14 -7l-56 -30l-37 -20l28 -30l173 -186l16 -19l22 12l165 88l-33 -182l-11 -58l55 23l82 35l12 5l5 12l119 289l168 90q35 19 47 57t-7 73q-18 34 -57 46
q-19 6 -37 4zM829 743q7 0 12 -1q13 -4 19 -15q6 -12 2.5 -24.5t-15.5 -18.5l-179 -97l-10 -5l-4 -11l-119 -286l-14 -6l34 189l12 65l-58 -31l-202 -109l-127 138l5 3l117 -52l15 -7l13 8l487 257q5 3 12 3zM428 701l123 -30l-66 -34l-72 55zM96 128v-64h832v64h-832z" />
    <glyph glyph-name="plane-solid" unicode="&#xed11;" 
d="M512 864q-39 0 -67.5 -28.5t-28.5 -67.5v-235l-269 -120l-19 -8v-153l288 32v-59l-82 -55l-14 -9v-136l38 8l154 31l154 -31l38 -8v136l-14 9l-82 55v59l288 -32v153l-19 8l-269 120v235q0 39 -28.5 67.5t-67.5 28.5zM512 800q14 0 23 -9t9 -23v-277l19 -8l269 -120v-39
l-288 32v-166l14 -9l82 -55v-23l-122 24l-6 2l-6 -2l-122 -24v23l82 55l14 9v166l-288 -32v39l269 120l19 8v277q0 14 9 23t23 9z" />
    <glyph glyph-name="play-circle-solid" unicode="&#xed12;" 
d="M512 832q-159 0 -271.5 -112.5t-112.5 -271.5t112.5 -271.5t271.5 -112.5t271.5 112.5t112.5 271.5t-112.5 271.5t-271.5 112.5zM512 768q133 0 226.5 -93.5t93.5 -226.5t-93.5 -226.5t-226.5 -93.5t-226.5 93.5t-93.5 226.5t93.5 226.5t226.5 93.5zM384 668v-440l48 28
l288 164l48 28l-48 28l-288 164zM448 558l191 -110l-191 -110v220z" />
    <glyph glyph-name="play-circle" unicode="&#xed13;" 
d="M512 832q-159 0 -271.5 -112.5t-112.5 -271.5t112.5 -271.5t271.5 -112.5t271.5 112.5t112.5 271.5t-112.5 271.5t-271.5 112.5zM512 768q133 0 226.5 -93.5t93.5 -226.5t-93.5 -226.5t-226.5 -93.5t-226.5 93.5t-93.5 226.5t93.5 226.5t226.5 93.5zM384 668v-440l48 28
l288 164l48 28l-48 28l-288 164zM448 558l191 -110l-191 -110v220z" />
    <glyph glyph-name="play-solid" unicode="&#xed14;" 
d="M288 795v-694l49 32l490 315l-490 315zM352 678l357 -230l-357 -230v460z" />
    </font>
</defs>
</svg>
